1 сезон

3 сезон

iTunes

1

Line

MVO

iTunes

13

1 сезон

RePack

30

Deluxe

pack

Лицензия

ВАЖНО

ИГРА 18+

pack

RePack

MK11

RePack

jed

RePack

fifa19

RePack

RDR2

RePack

NEED FOR SPEED™ PAYBACK

4 сезон

9 сезон

Бесстыжие 9 сезон

Все сериалы

все сериалы на PB.wtf

RePack

FAR CRY 5

Anonymous, доброе утро, мы катастрофически не успеваем собрать деньги на оплату серверов, помогите нам пожалуйста 5,10,15р., для нас важна любая помощь . В качестве благодарности мы отключим Вам всю рекламу на сайте (укажите свой ник в строку Ваше имя)!

×
  
Magnet ссылка

По соображениям совести / Hacksaw Ridge (Мэл Гибсон) [2016, драма, военный, история, BDRip-AVC от R.G.Resident] Дубляж - [Лицензия / iTunes] pb.wtf

По соображениям совести через торрент pb.wtf

Размер: 3.17 GB | Добавлен: 4 года 5 мес. назад | Торрент скачан:618 раз
Скачать  

16-02-2017 15:58 По соображениям совести Скачать торрент  

По соображениям совести / Hacksaw Ridge
««Основано на реальной истории»»

Год выпуска: 2016
Страна: Австралия, США
Жанр: драма, военный, история
Продолжительность: 02:19:19
Перевод: Дубляж - [Лицензия / iTunes]
Субтитры: русские (Forced), русские (Full), английские (Full), английские (SDH)
Режиссер: Мэл Гибсон
В ролях:

Эндрю Гарфилд (Desmond Doss), Сэм Уортингтон (Captain Glover), Тереза Палмер (Dorothy Schutte), Люк Брейси (Smitty Ryker), Винс Вон (Sgt Howell), Хьюго Уивинг (Tom Doss), Рэйчел Гриффитс (Bertha Doss), Натаниэль Бузолич (Harold «Hal» Doss), Ричард Роксбург (Colonel Stelzer), Фирэсс Дирани (Vito Rinnelli), Ричард Пирос (Teach), Джейкоб Уорнер (James Pinnick)
Описание:
Медик Американской армии времён Второй Мировой войны Дезмонд Досс, который служил во время битвы за Окинаву, отказывается убивать людей и становится первым идейным уклонистом в американской истории, удостоенным Медали Почёта.
Мировая премьера: 4 сентября 2016

MPAA: R - Лицам до 17 лет обязательно присутствие взрослого
Качество: BDRip-AVC Rip by
Формат: MKV
Видео: AVC, 1024x428 (2.40:1), 2432 kbps, 23,976 fps, 0,231 bpp
Аудио №1: русский / AC3 / 5.1 / 48 kHz / 384 kbps /
Аудио №2: английский / AC3 / 5.1 / 48 kHz / 448 kbps /
General
Unique ID : 210694393410254885183028899142369782272 (0x9E82439E91D73BC683123D3EC0DFAA00)
Complete name : D:\download\Hacksaw Ridge.2016.BDRip-AVC by schultz R.G.Resident.mkv
Format : Matroska
Format version : Version 4 / Version 2
File size : 3.17 GiB
Duration : 2 h 19 min
Overall bit rate : 3 262 kb/s
Encoded date : UTC 2017-02-23 21:30:05
Writing application : mkvmerge v8.9.0 ('Father Daughter') 64bit
Writing library : libebml v1.3.3 + libmatroska v1.4.4

Video
ID : 1
Format : AVC
Format/Info : Advanced Video Codec
Format profile : High@L4.1
Format settings, CABAC : Yes
Format settings, ReFrames : 12 frames
Codec ID : V_MPEG4/ISO/AVC
Duration : 2 h 19 min
Bit rate : 2 432 kb/s
Width : 1 024 pixels
Height : 428 pixels
Display aspect ratio : 2.40:1
Frame rate mode : Constant
Frame rate : 23.976 (23976/1000) FPS
Color space : YUV
Chroma subsampling : 4:2:0
Bit depth : 8 bits
Scan type : Progressive
Bits/(Pixel*Frame) : 0.231
Stream size : 2.36 GiB (74%)
Writing library : x264 core 146 r2538 121396c
Encoding settings : cabac=1 / ref=12 / deblock=1:-3:-3 / analyse=0x3:0x113 / me=umh / subme=11 / psy=1 / psy_rd=1.00:0.00 / mixed_ref=1 / me_range=48 / chroma_me=1 / trellis=2 / 8x8dct=1 / cqm=0 / deadzone=21,11 / fast_pskip=0 / chroma_qp_offset=-2 / threads=12 / lookahead_threads=3 / sliced_threads=0 / nr=0 / decimate=0 / interlaced=0 / bluray_compat=0 / constrained_intra=0 / bframes=11 / b_pyramid=2 / b_adapt=2 / b_bias=0 / direct=3 / weightb=1 / open_gop=0 / weightp=2 / keyint=240 / keyint_min=23 / scenecut=40 / intra_refresh=0 / rc_lookahead=40 / rc=2pass / mbtree=1 / bitrate=2432 / ratetol=1.0 / qcomp=0.60 / qpmin=0 / qpmax=69 / qpstep=4 / cplxblur=20.0 / qblur=0.5 / vbv_maxrate=50000 / vbv_bufsize=62500 / nal_hrd=none / filler=0 / ip_ratio=1.40 / aq=1:1.00
Language : English
Default : Yes
Forced : No

Audio #1
ID : 2
Format : AC-3
Format/Info : Audio Coding 3
Mode extension : CM (complete main)
Format settings, Endianness : Big
Codec ID : A_AC3
Duration : 2 h 19 min
Bit rate mode : Constant
Bit rate : 384 kb/s
Channel(s) : 6 channels
Channel positions : Front: L C R, Side: L R, LFE
Sampling rate : 48.0 kHz
Frame rate : 31.250 FPS (1536 spf)
Compression mode : Lossy
Stream size : 383 MiB (12%)
Language : Russian
Default : Yes
Forced : No

Audio #2
ID : 3
Format : AC-3
Format/Info : Audio Coding 3
Mode extension : CM (complete main)
Format settings, Endianness : Big
Codec ID : A_AC3
Duration : 2 h 19 min
Bit rate mode : Constant
Bit rate : 448 kb/s
Channel(s) : 6 channels
Channel positions : Front: L C R, Side: L R, LFE
Sampling rate : 48.0 kHz
Frame rate : 31.250 FPS (1536 spf)
Compression mode : Lossy
Stream size : 446 MiB (14%)
Language : English
Default : No
Forced : No

Text #1
ID : 4
Format : UTF-8
Codec ID : S_TEXT/UTF8
Codec ID/Info : UTF-8 Plain Text
Duration : 2 h 12 min
Bit rate : 2 b/s
Count of elements : 45
Stream size : 2.74 KiB (0%)
Title : forced
Language : Russian
Default : Yes
Forced : No

Text #2
ID : 5
Format : UTF-8
Codec ID : S_TEXT/UTF8
Codec ID/Info : UTF-8 Plain Text
Duration : 2 h 10 min
Bit rate : 75 b/s
Count of elements : 1417
Stream size : 72.2 KiB (0%)
Title : Full
Language : Russian
Default : No
Forced : No

Text #3
ID : 6
Format : UTF-8
Codec ID : S_TEXT/UTF8
Codec ID/Info : UTF-8 Plain Text
Duration : 2 h 8 min
Bit rate : 48 b/s
Count of elements : 1342
Stream size : 46.1 KiB (0%)
Title : Full
Language : English
Default : No
Forced : No

Text #4
ID : 7
Format : UTF-8
Codec ID : S_TEXT/UTF8
Codec ID/Info : UTF-8 Plain Text
Duration : 2 h 9 min
Bit rate : 55 b/s
Count of elements : 1655
Stream size : 53.2 KiB (0%)
Title : SDH
Language : English
Default : No
Forced : No

Menu
00:00:00.000 : en:00:00:00.000
00:09:18.766 : en:00:09:18.766
00:18:41.996 : en:00:18:41.996
00:26:34.510 : en:00:26:34.510
00:33:00.562 : en:00:33:00.562
00:40:04.152 : en:00:40:04.152
00:50:07.212 : en:00:50:07.212
00:57:01.543 : en:00:57:01.543
01:04:21.649 : en:01:04:21.649
01:17:50.207 : en:01:17:50.207
01:23:58.700 : en:01:23:58.700
01:31:21.726 : en:01:31:21.726
01:39:02.812 : en:01:39:02.812
01:46:07.569 : en:01:46:07.569
01:59:48.306 : en:01:59:48.306
02:07:13.292 : en:02:07:13.292

pb.wtf



Скачать По соображениям совести через торрент http://i77.fastpic.ru/big/2016/0417/a7/808a646271c761f7c7d87df3d366b3a7.png Скачать фильм По соображениям совести через торрент бесплантно в хорошем качестве Описание: Медик Американской армии времён Второй Мировой войны Дезмонд Досс, который служил во время битвы за Окинаву, отказывается убивать ... 9.8 10 16
Info! Золотая раздача, скачанное не засчитывается.
Торрент: Зарегистрирован [2017-02-23 21:42] · скачан: 618 раз
Статус: √ проверено
Размер: 3.17 GB
Как cкачать? Как скачать По соображениям совести через торрент | UTorrent

% Раздел Тема Автор DL S | L
Фильмы (HD 720p, 1080p) (48-60 fps) [ 4.27 GB ] По соображениям совести / Hacksaw Ridge [2016 военный история BDRip - HEVC 1080p 10 bit 60 FPS DUB] dd2d3 Скачать
3 | 0
Ultra HD (UHD: 2K, 4K, 8K) — видео сверхвысокой чёткости [ 79.26 GB ] По соображениям совести / Hacksaw Ridge [2016 военный история UHD BDRemux 2160p] + 3xAVO sheker187 Скачать
1 | 0
Ultra HD (UHD: 2K, 4K, 8K) — видео сверхвысокой чёткости [ 70.03 GB ] По соображениям совести / Hacksaw Ridge [2016 военный история UHD BDRemux 2160p] DUB [] bober100 Скачать
1 | 0
Фильмы с авторской озвучкой [ 2.17 GB ] По соображениям совести / Hacksaw Ridge [2016 военный биография BDRip-AVC от _denis_100 | NNNB] AVO + Sub _denis_100 Скачать
1 | 0
Фильмы (Blu-ray, BD-Remux, HDDVD) [ 40.74 GB ] По соображениям совести / Hacksaw Ridge [2016 военный история Blu-ray 1080p] bober100 Скачать
1 | 0
Фильмы с авторской озвучкой [ 2.18 GB ] По соображениям совести / Hacksaw Ridge [2016 военный биография история HDRip] [AVO] killermax2013 Скачать
1 | 0
Фильмы 2016 [DVDrip, WEB-DLRip, HDrip] (DUB, MVO) [ 2.12 GB ] По соображениям совести / Hacksaw Ridge [2016 военный история BDRip] - Twi7ter Скачать
1 | 0


Последний раз редактировалось: schultz (2017-02-23 21:42), всего редактировалось 1 раз

28-11-2019 20:33  

Отключить всю рекламу на сайте


16-02-2017 16:20 По соображениям совести Скачать торрент  

повапропропpb.wtf



24-02-2017 07:20 По соображениям совести Скачать торрент  

bubaRP писал(а):

повапропроп

?pb.wtf



27-02-2017 09:06 По соображениям совести Скачать торрент  

Фильм посмотрел. Сказка конечно с одной стороны, показывают что американцы пытаются взять гору, где натянута уже сетка для подъема... но японцы видимо глупые что не воспользовались своим превосходством высоты, пускают их на гору (да по крайней мере можно было срезать эту лестницу) или я многого не понимаю...Уважаю Мела Гибсона, но этот фильм не зацепил.pb.wtf



    Дорогой пользователь! Огромная просьба, поблагодарите релизера, оцените раздачу и оставьте свои комментарий, если Вы скачали По соображениям совести через торрент бесплатно! Внесите свою лепту в развитие PiratBit!
    Комментировать посты могут только пользователи прошедшие не сложную регистрацию
    Показать сообщения:    

    По соображениям совести через торрент
    Скачать бесплатно По соображениям совести
    По соображениям совести скачать торрент
    По соображениям совести смотреть онлайн
    Cкачать фильм По соображениям совести бесплатно
    По соображениям совести скачать торрент в хорошем качестве
    По соображениям совести смотреть онлайн бесплатно в хорошем качестве


    Вы не можете начинать темы
    Вы не можете отвечать на сообщения
    Вы не можете редактировать свои сообщения
    Вы не можете удалять свои сообщения
    Вы не можете голосовать в опросах
    Вы не можете прикреплять файлы к сообщениям
    Вы можете скачивать файлы