новый адрес пиратбит piratbit
Мега распродажа FORZA HORIZON 4 ULTIMATE+ВСЕ DLC+ОНЛАЙН всего за 499р. 349 руб. (супер цена). Внимание количество ограничено!!!

iTunes

1+1

iTunes

мы

iTunes

1

iTunes

Чернобыль

iTunes

Ральф против интернета

Лицензия

ПШазам

Лицензия

Игра престолов

Лицензия

30
pack

ВАЖНО

!!Акция!!

Alien_RageХит недели

RePack

Resident Evil 21

ИГРА 18+

pack

RePack

Metro:Exodus

!!Акция!!

Alien_Rage

RePack

fifa19

RePack

Assassins Creed: Odyssey

RePack

NEED FOR SPEED™ PAYBACK

3 сезон

9 сезон

Бесстыжие 9 сезон

Все сериалы

все сериалы на PB.wtf

RePack

FAR CRY 5
Ребята, катастрофически не хватает 1900р. для оплаты серверов за Октябрь (всвязи с блокировками трафик упал в 3 раза), 1-2р., выручайте.
  

Последний из Сабудара (Шота Манагадзе) [1957, СССР, мелодрама, комедия, WEB-DLRip от AVP Studio] pb.wtf

Последний из Сабудара через торрент pb.wtf

Размер: 1.09 GB | Добавлен: 2 года 8 мес. назад | Торрент скачан:9 раз
Скачать  

18-02-2017 10:09 Последний из Сабудара Скачать торрент  

Последний из Сабудара
Страна: СССР
Производство: Грузия-фильм

Жанр: мелодрама, комедия
Год выпуска: 1957
Продолжительность: 01:16:45

Перевод: Не требуется
Cубтитры: нет
Оригинальная аудиодорожка: русский

Режиссер: Шота Манагадзе

В ролях:
Белла Мирианашвили, Имеда Кахиани, Григорий (Григол) Ткабладзе, Зураб Лаперадзе, Гиви Тохадзе, Акакий (Како) Кванталиани, Сесилия Такаишвили, Иосиф (Сосо) Лагидзе, Ипполит Хвичия, Мака Махарадзе, Нодар Мгалоблишвили, Капитон Абесадзе, Нодар Пиранишвили, Мери Канделаки, Шалва Хонели (Гоголашвили), Мариам Мдивани, Лия Сараджишвили, Валентин Донгузашвили, Ерастий Биланишвили, В. Мардалеишвили, Карло Саканделидзе, Еремия Сванадзе...
Полный список актёров

Описание:
Молодой парень живет в горной грузинской деревне Сабудара. Ему нравится жить на родной земле, рядом со своим отцом - Сачино, мастером гончарного дела. Но однажды он узнаёт, что семья девушки, в которую он влюблен уезжают в Кутаиси. И тогда он решает сбежать из дома вслед за ней.

Источник: WEB-DL 720p
Качество видео: WEB-DLRip
Формат видео: AVI

Видео: 704x528 (4:3), 25,000 fps, XviD ~ 1832 kbps avg, 0.197 bit/pixel
Аудио: 48 kHz, Dolby Digital AC3 2.0, 192 kbps

Раздача от:
Общее
Полное имя : Posledniy.iz.Sabudara.1957.WEB-DLRip_[New-team]_by_AVP_Studio.avi
Формат : AVI
Формат/Информация : Audio Video Interleave
Размер файла : 1,09 Гбайт
Продолжительность : 1 ч. 16 м.
Общий поток : 2034 Кбит/сек
Программа кодирования : VirtualDubMod 1.5.10.3 | www.virtualdub-fr.org || (build 2550/release)
Библиотека кодирования : VirtualDubMod build 2550/release

Видео
Идентификатор : 0
Формат : MPEG-4 Visual
Профиль формата : Advanced Simple@L5
Параметр BVOP формата : 1
Параметр QPel формата : Нет
Параметр GMC формата : Без точки перехода
Параметр матрицы формата : Выборочная
Идентификатор кодека : XVID
Идентификатор кодека/Подсказка : XviD
Продолжительность : 1 ч. 16 м.
Битрейт : 1832 Кбит/сек
Ширина : 704 пикселя
Высота : 528 пикселей
Соотношение сторон : 4:3
Частота кадров : 25,000 кадров/сек
Цветовое пространство : YUV
Субдискретизация насыщенности : 4:2:0
Битовая глубина : 8 бит
Тип развёртки : Прогрессивная
Метод сжатия : С потерями
Бит/(Пиксели*Кадры) : 0.197
Размер потока : 1006 Мбайт (90%)
Библиотека кодирования : XviD 73

Аудио
Идентификатор : 1
Формат : AC-3
Формат/Информация : Audio Coding 3
Расширение режима : CM (complete main)
Параметр Endianness формата : Big
Идентификатор кодека : 2000
Продолжительность : 1 ч. 16 м.
Вид битрейта : Постоянный
Битрейт : 192 Кбит/сек
Каналы : 2 канала
Расположение каналов : Front: L R
Частота : 48,0 КГц
Частота кадров : 31,250 кадров/сек (1536 spf)
Битовая глубина : 16 бит
Метод сжатия : С потерями
Размер потока : 105 Мбайт (9%)
Выравнивание : Разделение по промежуткам
Продолжительность промежутка : 40 мс. (1,00 видеокадр)
Время предзагрузки промежутка : 500 мс
pb.wtf



Скачать Последний из Сабудара через торрент http://s015.radikal.ru/i330/1702/6b/fa937cfdc1bf.png Скачать фильм Последний из Сабудара через торрент бесплантно в хорошем качестве Описание:Молодой парень живет в горной грузинской деревне Сабудара. Ему нравится жить на родной земле, рядом со своим отцом - Сачино, ... 5 10 1
Info! Золотая раздача, скачанное не засчитывается.
Торрент: Зарегистрирован [2017-02-18 10:09] · скачан: 9 раз
Статус: √ проверено
Размер: 1.09 GB
Как cкачать? Как скачать Последний из Сабудара через торрент | qTorrent

% Раздел Тема Автор DL S | L
Кино СССР [ 1.09 GB ] Последний из Сабудара [1957 СССР WEB-DLRip-AVC от AVP Studio] AVP Studio Скачать
1 | 0


>> Регистрируемся здесь <<






Отзывы и комментарии о схеме читаем и пишем здесь: ---> Отзывы и комментарии о схеме

Новые благодарочки в телеграм довольных пользователей:
скриншот   скриншот   скриншот   скриншот   скриншот
    Дорогой пользователь! Огромная просьба, поблагодарите релизера, оцените раздачу и оставьте свои комментарий, если Вы скачали Последний из Сабудара через торрент бесплатно! Внесите свою лепту в развитие PiratBit!
    Комментировать посты могут только пользователи прошедшие не сложную регистрацию
    Показать сообщения:    

    Последний из Сабудара через торрент
    Скачать бесплатно Последний из Сабудара
    Последний из Сабудара скачать торрент
    Последний из Сабудара смотреть онлайн
    Cкачать фильм Последний из Сабудара бесплатно
    Последний из Сабудара скачать торрент в хорошем качестве
    Последний из Сабудара смотреть онлайн бесплатно в хорошем качестве


    Вы не можете начинать темы
    Вы не можете отвечать на сообщения
    Вы не можете редактировать свои сообщения
    Вы не можете удалять свои сообщения
    Вы не можете голосовать в опросах
    Вы не можете прикреплять файлы к сообщениям
    Вы можете скачивать файлы