2 сезон

iTunes

1 сезон

1

iTunes

iTunes

iTunes

1 сезон

RePack

30

ИГРА 18+

pack

ВАЖНО

!!Акция!!

Alien_RageХит недели

RePack

MK11
pack

Забери бонус

RePack

jed

!!Акция!!

Alien_Rage

RePack

fifa19

RePack

Assassins Creed: Odyssey

RePack

NEED FOR SPEED™ PAYBACK

4 сезон

9 сезон

Бесстыжие 9 сезон

Все сериалы

все сериалы на PB.wtf

RePack

FAR CRY 5
  

Бывших не бывает / Серии: 1-4 из 4 (Зиновий Ройзман) [2013, боевик, SATRip-AVC] pb.wtf

Бывших не бывает через торрент pb.wtf

Размер: 2.27 GB | Добавлен: 3 года 8 мес. назад | Торрент скачан:154 раза
Скачать  

19-02-2017 08:26 Бывших не бывает Скачать торрент  

Бывших не бывает


Год выпуска: 2013
Производство:Россия, Компания Марс Медиа
Жанр: боевик
Продолжительность: 00:47:00
Субтитры: нет



Режиссёр: Зиновий Ройзман



В ролях:Сергей Горобченко, Павел Трубинер, Юрий Назаров, Ольга Ломоносова, Ольга Филиппова, Дмитрий Быковский-Ромашов, Антон Сёмкин, Азиз Бейшеналиев, Геннадий Пачис, Наталья Варнакова, Роман Евдокимов, Сергей Лобанов , Ангелина Добророднова, Александр Хващинский, Антон Степанов, Алексей Овсянников, Ольга Варнакова, Алена Новицкая, Артём Чилек


Описание: В семье Виктора Платонова случилась беда: тяжело ранен сын. Спасти его может только операция стоимостью в 500 тысяч долларов. Таких денег у Платонова нет, однако операцию готов оплатить местный криминальный авторитет. Все, что нужно Виктору – доставить в соседний город некий товар. Выбор исполнителя для этого дела неслучаен: Платонов – бывший сотрудник специального подразделения разведки «Группа 6». И он вынужден согласиться…









Релиз от:




Качество: SATRip-AVC
Формат: MKV
Видео кодек: H.264
Аудио кодек: AC3
Видео: MPEG4 Video (H264), 720x400, 25fps,1500 Kbps,bit/pixel 0.208
Аудио: AC3 48000Hz, stereo, 192kbps,2 ch



Общее
Уникальный идентификатор : 170994786300122131108689727250361985310 (0x80A465DE8A6516D3B574EE9E49CBA91E)
Полное имя : D:\Бывших не бывает\01 серия_Бывших не бывает_rip by_Aleksan55.mkv
Формат : Matroska
Версия формата : Version 2
Размер файла : 572 Мбайт
Продолжительность : 47 м. 14 с.
Общий поток : 1694 Кбит/сек
Дата кодирования : UTC 2017-02-18 11:46:58
Программа кодирования : mkvmerge v7.8.0 ('River Man') 32bit built on Apr 3 2015 12:11:22
Библиотека кодирования : libebml v1.3.1 + libmatroska v1.4.2

Видео
Идентификатор : 1
Формат : AVC
Формат/Информация : Advanced Video Codec
Профиль формата : High@L4.1
Параметр CABAC формата : Да
Параметр ReFrames формата : 14 кадров
Идентификатор кодека : V_MPEG4/ISO/AVC
Продолжительность : 47 м. 14 с.
Битрейт : 1500 Кбит/сек
Ширина : 720 пикселей
Высота : 400 пикселей
Соотношение сторон : 16:9
Режим частоты кадров : Постоянный
Частота кадров : 25,000 кадров/сек
Цветовое пространство : YUV
Субдискретизация насыщенности : 4:2:0
Битовая глубина : 8 бит
Тип развёртки : Прогрессивная
Бит/(Пиксели*Кадры) : 0.208
Размер потока : 496 Мбайт (87%)
Библиотека кодирования : x264 core 148 r2638 7599210
Настройки программы : cabac=1 / ref=14 / deblock=1:-2:-2 / analyse=0x3:0x133 / me=umh / subme=9 / psy=1 / psy_rd=1.00:0.15 / mixed_ref=0 / me_range=32 / chroma_me=1 / trellis=2 / 8x8dct=1 / cqm=0 / deadzone=21,11 / fast_pskip=0 / chroma_qp_offset=-3 / threads=3 / lookahead_threads=3 / sliced_threads=0 / nr=0 / decimate=0 / interlaced=0 / bluray_compat=0 / constrained_intra=0 / bframes=14 / b_pyramid=2 / b_adapt=1 / b_bias=0 / direct=3 / weightb=1 / open_gop=0 / weightp=2 / keyint=250 / keyint_min=25 / scenecut=40 / intra_refresh=0 / rc_lookahead=40 / rc=2pass / mbtree=1 / bitrate=1500 / ratetol=1.0 / qcomp=0.80 / qpmin=0 / qpmax=39 / qpstep=4 / cplxblur=20.0 / qblur=0.5 / ip_ratio=1.10 / aq=1:1.20
Default : Да
Forced : Нет
Цветовой диапазон : Limited
Основные цвета : BT.601 PAL
Характеристики трансфера : BT.470 System B, BT.470 System G
Коэффициенты матрицы : BT.601

Аудио
Идентификатор : 2
Формат : AC-3
Формат/Информация : Audio Coding 3
Расширение режима : CM (complete main)
Параметр Endianness формата : Big
Идентификатор кодека : A_AC3
Продолжительность : 47 м. 14 с.
Вид битрейта : Постоянный
Битрейт : 192 Кбит/сек
Каналы : 2 канала
Расположение каналов : Front: L R
Частота : 48,0 КГц
Частота кадров : 31,250 кадров/сек (1536 spf)
Битовая глубина : 16 бит
Метод сжатия : С потерями
Размер потока : 64,9 Мбайт (11%)
Default : Да
Forced : Нет


Рекламы нет.pb.wtf



Скачать Бывших не бывает через торрент http://img11.lostpic.net/2017/02/18/cc9080608234c68e0bb9d2ab69aa04c0.png Скачать фильм Бывших не бывает через торрент бесплантно в хорошем качестве Описание: В семье Виктора Платонова случилась беда: тяжело ранен сын. Спасти его может только операция стоимостью в 500 тысяч долларов. ... 10 10 2
Торрент: Зарегистрирован [2017-02-19 08:26] · скачан: 154 раз
Статус: √ проверено
Размер: 2.27 GB
Как cкачать? Как скачать Бывших не бывает через торрент | qTorrent

% Раздел Тема Автор DL S | L
Наши сериалы [ 2.97 GB ] Бывших не бывает / Серии: 1-4 из 4 [2013 HDTVRip-AVC] bober100 Скачать
1 | 0
Наши сериалы [ 2.43 GB ] Бывших не бывает / Серии: 1-4 из 4 [2013 HDTVRip] bober100 Скачать
1 | 0
Наши сериалы [ 5.01 GB ] Бывших не бывает / Серии: 1-4 из 4 [2013 HDTVRip 720p] bober100 Скачать
1 | 0
Наши сериалы [ 12.06 GB ] Бывших не бывает / Серии: 1-4 из 4 [2013 HDTV 1080i] bober100 Скачать
1 | 0
Наши сериалы [ 3.06 GB ] Бывших не бывает / Серии: 1-4 из 4 [2013 WEB-DLRip-AVC] bober100 Скачать
1 | 0
Наши сериалы [ 2.22 GB ] Бывших не бывает / / Серии 1-4 из 4 [2013 Россия IPTVRip) GEKADOL Скачать
1 | 0

28-11-2019 20:33  

Отключить всю рекламу на сайте

    Дорогой пользователь! Огромная просьба, поблагодарите релизера, оцените раздачу и оставьте свои комментарий, если Вы скачали Бывших не бывает через торрент бесплатно! Внесите свою лепту в развитие PiratBit!
    Комментировать посты могут только пользователи прошедшие не сложную регистрацию
    Показать сообщения:    

    Бывших не бывает через торрент
    Скачать бесплатно Бывших не бывает
    Бывших не бывает скачать торрент
    Бывших не бывает смотреть онлайн
    Cкачать фильм Бывших не бывает бесплатно
    Бывших не бывает скачать торрент в хорошем качестве
    Бывших не бывает смотреть онлайн бесплатно в хорошем качестве


    Вы не можете начинать темы
    Вы не можете отвечать на сообщения
    Вы не можете редактировать свои сообщения
    Вы не можете удалять свои сообщения
    Вы не можете голосовать в опросах
    Вы не можете прикреплять файлы к сообщениям
    Вы можете скачивать файлы