Ссылка на приватное зеркало нашего сайта всего за 1$. Внимание количество ограничено!!!

2 сезон

iTunes

1 сезон

1

iTunes

iTunes

iTunes

1 сезон

RePack

30

ИГРА 18+

pack

ВАЖНО

!!Акция!!

Alien_RageХит недели

RePack

MK11
pack

Забери бонус

RePack

jed

!!Акция!!

Alien_Rage

RePack

fifa19

RePack

Assassins Creed: Odyssey

RePack

NEED FOR SPEED™ PAYBACK

4 сезон

9 сезон

Бесстыжие 9 сезон

Все сериалы

все сериалы на PB.wtf

RePack

FAR CRY 5
  

Мгновения жизни / The Life Before Her Eyes (Вадим Перельман) [2007, триллер, драма, детектив, BDRip 720p by msltel] MVO pb.wtf

Мгновения жизни через торрент pb.wtf

Размер: 3.61 GB | Добавлен: 3 года 8 мес. назад | Торрент скачан:89 раз
Скачать  

19-02-2017 10:11 Мгновения жизни Скачать торрент  

Название: Мгновения жизни
Оригинальное название: The Life Before Her Eyes
Год выпуска: 2007
Страна: США
Жанр: триллер, драма, детектив
Продолжительность: 01:29:37
Перевод: профессиональный многоголосый

Режиссёр: Вадим Перельман

В ролях: Ума Турман, Ивэн Рэйчел Вуд, Эва Амурри, Габриэль Бреннан, Бретт Каллен, Оскар Айзек, Джек Гилпин, Мэгги Лэйси, Джон Магаро, Линн Коэн, Натали Полдинг, Молли Прайс, Оливер Соломон, Кайа Джэм, Шэйна Левин, Ивэн Нойманн, Энн МакДонаф, Джейми Уотсон

Описание: 15 лет назад Диана выжила после массового убийства, произошедшего в американском колледже. Сегодня она типичная домохозяйка, взрослая замужняя женщина, воспитывающая восьмилетнюю дочь, но сомнения в устроенности своей жизни не проходят. В своих воспоминаниях Диана видит себя по-прежнему старшеклассницей, вместе с застенчивой подружкой Морин предающейся типичным девичьим фантазиями о парнях и светлом будущем. Но что-то не даёт Диане покоя. Что-то, связанное с Морин и случившееся в день стрельбы...



Качество: BDRip 720p
Формат: MKV
Видео: MPEG-4 AVC, 4861 Кбит/с, 1280x534, 23,976 кадра/с
Аудио 1: русский, AC3, 448 kbps, 6 ch, 48 kHz [профессиональный многоголосый, лицензия]
Аудио 2: английский, AC3, 448 kbps, 6 ch, 48 kHz [оригинал]
Субтитры 1: русские
Субтитры 2: английские
Общее
Уникальный идентификатор : 209437575651849272963286826185264223136 (0x9D9035B84195C18B820E4B2D352053A0)
Полное имя : D:\Video\Мгновения жизни.2007.BDRip.720p by msltel.mkv
Формат : Matroska
Версия формата : Version 4 / Version 2
Размер файла : 3,61 Гбайт
Продолжительность : 1 ч. 29 м.
Общий поток : 5757 Кбит/сек
Название фильма : Rip by msltel
Дата кодирования : UTC 2017-02-19 05:41:58
Программа кодирования : mkvmerge v8.2.0 ('World of Adventure') 64bit
Библиотека кодирования : libebml v1.3.1 + libmatroska v1.4.2

Видео
Идентификатор : 1
Формат : AVC
Формат/Информация : Advanced Video Codec
Профиль формата : High@L4.1
Параметр CABAC формата : Да
Параметр ReFrames формата : 9 кадров
Идентификатор кодека : V_MPEG4/ISO/AVC
Продолжительность : 1 ч. 29 м.
Битрейт : 4861 Кбит/сек
Ширина : 1280 пикселей
Высота : 534 пикселя
Соотношение сторон : 2,40:1
Режим частоты кадров : Постоянный
Частота кадров : 23,976 (24000/1001) кадра/сек
Цветовое пространство : YUV
Субдискретизация насыщенности : 4:2:0
Битовая глубина : 8 бит
Тип развёртки : Прогрессивная
Бит/(Пиксели*Кадры) : 0.297
Размер потока : 3,04 Гбайт (84%)
Библиотека кодирования : x264 core 146 r2538 121396c
Настройки программы : cabac=1 / ref=9 / deblock=1:-3:-3 / analyse=0x3:0x113 / me=umh / subme=11 / psy=1 / psy_rd=1.00:0.15 / mixed_ref=1 / me_range=32 / chroma_me=1 / trellis=2 / 8x8dct=1 / cqm=0 / deadzone=21,11 / fast_pskip=0 / chroma_qp_offset=-3 / threads=6 / lookahead_threads=1 / sliced_threads=0 / nr=0 / decimate=1 / interlaced=0 / bluray_compat=0 / constrained_intra=0 / bframes=7 / b_pyramid=2 / b_adapt=2 / b_bias=0 / direct=1 / weightb=1 / open_gop=0 / weightp=2 / keyint=230 / keyint_min=23 / scenecut=40 / intra_refresh=0 / rc_lookahead=40 / rc=crf / mbtree=0 / crf=17.3 / qcomp=0.60 / qpmin=0 / qpmax=69 / qpstep=4 / vbv_maxrate=62500 / vbv_bufsize=78125 / crf_max=0.0 / nal_hrd=none / filler=0 / ip_ratio=1.40 / pb_ratio=1.30 / aq=1:1.00
Язык : English
Default : Да
Forced : Нет

Аудио #1
Идентификатор : 2
Формат : AC-3
Формат/Информация : Audio Coding 3
Расширение режима : CM (complete main)
Параметр Endianness формата : Big
Идентификатор кодека : A_AC3
Продолжительность : 1 ч. 29 м.
Вид битрейта : Постоянный
Битрейт : 448 Кбит/сек
Каналы : 6 каналов
Расположение каналов : Front: L C R, Side: L R, LFE
Частота : 48,0 КГц
Частота кадров : 31,250 кадров/сек (1536 spf)
Битовая глубина : 16 бит
Метод сжатия : С потерями
Размер потока : 287 Мбайт (8%)
Заголовок : MVO (лицензия)
Язык : Russian
Default : Да
Forced : Нет

Аудио #2
Идентификатор : 3
Формат : AC-3
Формат/Информация : Audio Coding 3
Расширение режима : CM (complete main)
Параметр Endianness формата : Big
Идентификатор кодека : A_AC3
Продолжительность : 1 ч. 29 м.
Вид битрейта : Постоянный
Битрейт : 448 Кбит/сек
Каналы : 6 каналов
Расположение каналов : Front: L C R, Side: L R, LFE
Частота : 48,0 КГц
Частота кадров : 31,250 кадров/сек (1536 spf)
Битовая глубина : 16 бит
Метод сжатия : С потерями
Размер потока : 287 Мбайт (8%)
Заголовок : original
Язык : English
Default : Нет
Forced : Нет

Текст #1
Идентификатор : 4
Формат : UTF-8
Идентификатор кодека : S_TEXT/UTF8
Идентификатор кодека/Информация : UTF-8 Plain Text
Продолжительность : 1 ч. 22 м.
Битрейт : 65 бит/сек
Count of elements : 685
Размер потока : 39,6 Кбайт (0%)
Заголовок : русские
Язык : Russian
Default : Нет
Forced : Нет

Текст #2
Идентификатор : 5
Формат : UTF-8
Идентификатор кодека : S_TEXT/UTF8
Идентификатор кодека/Информация : UTF-8 Plain Text
Продолжительность : 1 ч. 24 м.
Битрейт : 44 бит/сек
Count of elements : 1124
Размер потока : 27,6 Кбайт (0%)
Заголовок : английские
Язык : English
Default : Нет
Forced : Нет
pb.wtf



Скачать Мгновения жизни через торрент http://s020.radikal.ru/i718/1702/87/af9c33300a03.jpg Скачать фильм Мгновения жизни через торрент бесплантно в хорошем качестве Описание: 15 лет назад Диана выжила после массового убийства, произошедшего в американском колледже. Сегодня она ичная домохозяйка, ... 7.6 10 5
Info! Золотая раздача, скачанное не засчитывается.
Торрент: Зарегистрирован [2017-02-19 10:11] · скачан: 89 раз
Статус: √ проверено
Размер: 3.61 GB
Как cкачать? Как скачать Мгновения жизни через торрент | qTorrent

% Раздел Тема Автор DL S | L
Фильмы [HD 720p, 1080p] (Хороший звук DUB, MVO) [ 9.85 GB ] Мгновения жизни / The Life Before Her Eyes [2007 BDRip 1080p by msltel] MVO msltel Скачать
1 | 4
Фильмы 2006-2008 [ 1.73 GB ] Мгновения жизни / Вся жизнь перед глазами / The Life Before Her Eyes [2007 BDRip] Mvo + Original + Sub -=Cherry=- Скачать
1 | 0

28-11-2019 20:33  

Отключить всю рекламу на сайте

21-02-2017 07:47 Мгновения жизни Скачать торрент  

Тупой фильмpb.wtf



    Дорогой пользователь! Огромная просьба, поблагодарите релизера, оцените раздачу и оставьте свои комментарий, если Вы скачали Мгновения жизни через торрент бесплатно! Внесите свою лепту в развитие PiratBit!
    Комментировать посты могут только пользователи прошедшие не сложную регистрацию
    Показать сообщения:    

    Мгновения жизни через торрент
    Скачать бесплатно Мгновения жизни
    Мгновения жизни скачать торрент
    Мгновения жизни смотреть онлайн
    Cкачать фильм Мгновения жизни бесплатно
    Мгновения жизни скачать торрент в хорошем качестве
    Мгновения жизни смотреть онлайн бесплатно в хорошем качестве


    Вы не можете начинать темы
    Вы не можете отвечать на сообщения
    Вы не можете редактировать свои сообщения
    Вы не можете удалять свои сообщения
    Вы не можете голосовать в опросах
    Вы не можете прикреплять файлы к сообщениям
    Вы можете скачивать файлы