Ссылка на приватное зеркало всего за 1$. Внимание количество ограничено!!!

iTunes

iTunes

iTunes

1

iTunes

iTunes

iTunes

iTunes

iTunes

30
pack

$ от Little Big

ВАЖНО

!!Акция!!

Alien_RageХит недели

RePack

Resident Evil 21

ИГРА 18+

pack

RePack

jed

!!Акция!!

Alien_Rage

RePack

fifa19

RePack

Assassins Creed: Odyssey

RePack

NEED FOR SPEED™ PAYBACK

4 сезон

9 сезон

Бесстыжие 9 сезон

Все сериалы

все сериалы на PB.wtf

RePack

FAR CRY 5
  

Волынь / Wolyn (Войчех Смажовски) [2016 г., военный, WEBRip 720p, Профессиональный (многоголосый)] pb.wtf

Волынь через торрент pb.wtf

Размер: 5.05 GB | Добавлен: 3 года 4 мес. назад | Торрент скачан:205 раз
Скачать  

19-02-2017 13:04 Волынь Скачать торрент  

Волынь / Wolyn
Год выпуска: 2016
Страна: Польша
Жанр: Военный, исторический
Продолжительность: 2:22:45
Перевод: Польський, Украинский,

Доп. информация: «O miłości w nieludzkich czasach»

Бюджет: PLN 10 000 000
Премьера в мире: 23 сентября 2016

rating

Режиссер: Войчех Смажовски

В ролях: Яцек Брачак, Лех Дыблик, Аркадиуш Якубик, Изабела Куна, Michalina Labacz, Andrzej Popiel, Томаш Сапрык, Себастьян Стегман, Wasyl Wasylik, Адриан Заремб

Описание: События в фильме начинаются в летние месяцы 1939 года на территории Волыни, которая на тот период относилась к землям Польши. Между главной героиней, красивой польской девушкой Зосей, и украинским хлопцем возникает сильная любовь. Однако родители девушки отдают против её воли замуж за состоятельного вдовца. Скоро началась Вторая Мировая война и муж Зоси отправляется на фронт, оставив её со своими детьми. В то время, когда поляки терпят поражения от гитлеровской армии, в родном крае девушки происходят не менее чудовищные вещи. Украинские националисты начинают все чаще нападать на польское население, вырезая мирных жителей целыми селениями.


Качество: WEBRip (720p)
Формат: MPEG-4
Видео кодек: AVC
Аудио кодек: AAC (LC)
Видео кодек: MPEG-4 AVC, ~ 4931 Кбит/с, 1280x720
Аудио кодек: MP3, 2 ch, 127 Кбит/с
ExifTool Version Number : 10.10
General
Complete name : /home/wollishofen/Загрузки/Wolyn.2016.PL.720p.WEBRip.XviD.AC3.KRT.mp4
Format : MPEG-4
Format profile : Base Media / Version 2
Codec ID : mp42 (mp42)
File size : 5.05 GiB
Duration : 2h 22mn
Overall bit rate : 5 068 Kbps
Codirector : codirector
Production studio : studio
ContentType : Unknown Type
Encoded date : UTC 2017-02-18 18:08:45
Tagged date : UTC 2017-02-18 18:08:45

Video
ID : 1
Format : AVC
Format/Info : Advanced Video Codec
Format profile : Main@L4.1
Format settings, CABAC : Yes
Format settings, ReFrames : 2 frames
Format settings, GOP : M=3, N=25
Muxing mode : Container profile=Baseline@3.0
Codec ID : avc1
Codec ID/Info : Advanced Video Coding
Duration : 2h 22mn
Bit rate : 4 932 Kbps
Width : 1 280 pixels
Height : 720 pixels
Display aspect ratio : 16:9
Frame rate mode : Constant
Frame rate : 25.000 fps
Color space : YUV
Chroma subsampling : 4:2:0
Bit depth : 8 bits
Scan type : Progressive
Bits/(Pixel*Frame) : 0.214
Stream size : 4.92 GiB (97%)
Language : English
Encoded date : UTC 1951-02-18 18:08:45
Tagged date : UTC 1951-02-18 18:08:45

Audio
ID : 2
Format : AAC
Format/Info : Advanced Audio Codec
Format profile : LC
Codec ID : 40
Duration : 2h 22mn
Bit rate mode : Constant
Bit rate : 128 Kbps
Channel(s) : 2 channels
Channel positions : Front: L R
Sampling rate : 48.0 KHz
Frame rate : 46.875 fps (1024 spf)
Compression mode : Lossy
Stream size : 131 MiB (3%)
Title : Stereo
Language : English
Default : Yes
Alternate group : 1
Encoded date : UTC 1951-02-18 18:08:45
Tagged date : UTC 1951-02-18 18:08:45
[/code]
скриншот   скриншот  скриншот  pb.wtf



Скачать Волынь через торрент http://s019.radikal.ru/i622/1701/f0/2184d3f406ae.jpg Скачать фильм Волынь через торрент бесплантно в хорошем качестве Описание: События в фильме начинаются в летние месяцы 1939 года на территории Волыни, которая на тот период относилась к землям Польши. ... 10 10 12
× Info от релизера! Перезалит
Info! Золотая раздача, скачанное не засчитывается.
Торрент: Зарегистрирован [2017-02-19 13:14] · скачан: 205 раз
Статус: T временная
Размер: 5.05 GB
Как cкачать? Как скачать Волынь через торрент | qTorrent

% Раздел Тема Автор DL S | L
Фильмы 2016 (Звук TS, Cam, VO, DVO) [ 2.9 GB ] Волынь / Wolyn / Wołyń / Hatred [2016 военная HDRip-AVC] VO Flash3550 Скачать
1 | 0
T Фильмы 2016 [DVDrip, WEB-DLRip, HDrip] (DUB, MVO) [ 2.18 GB ] Волынь / Wolyn / Hatred [2016 военный история HDRip Любительский [Синема УС]] oleg8 Скачать
1 | 0


Последний раз редактировалось: Wollishofen (2017-02-19 18:35), всего редактировалось 20 раз(а)

28-11-2019 20:33  

Отключить всю рекламу на сайте

19-02-2017 13:34 Волынь Скачать торрент  

а чего оформление такое куцае?
треба статистика по видео и аудио наглядно, а не только в медиаинфоpb.wtf



19-02-2017 13:48 Волынь Скачать торрент  

жестяк описание javascript:emoticon(' ')pb.wtf



19-02-2017 15:43 Волынь Скачать торрент  

Блин, скачал 5 гигов, а перевода русского нет.... pb.wtf



19-02-2017 16:13 Волынь Скачать торрент  

Ironcross писал(а):

Блин, скачал 5 гигов, а перевода русского нет....

Релиз 28.03.2017, Ждите.pb.wtf



02-03-2017 18:51 Волынь Скачать торрент  

erget писал(а):

жестяк описание javascript:emoticon(' ')

Жестяк тем украинцам которые страдали от своих же бендеровцев ...
Наконец то фильм вышел хоть и без перевода (рус) ... у нас он запрещён в украине (статью примажут за просмотр подобного контента) - так бы в кинотеатре посмотреть ....pb.wtf



03-05-2017 14:58 Волынь Скачать торрент  

Flash3550 писал(а):

erget писал(а):

жестяк описание javascript:emoticon(' ')

Жестяк тем украинцам которые страдали от своих же бендеровцев ...
Наконец то фильм вышел хоть и без перевода (рус) ... у нас он запрещён в украине (статью примажут за просмотр подобного контента) - так бы в кинотеатре посмотреть ....

Чё ты гонишь,где это он в Украине запрещён?????pb.wtf



    Дорогой пользователь! Огромная просьба, поблагодарите релизера, оцените раздачу и оставьте свои комментарий, если Вы скачали Волынь через торрент бесплатно! Внесите свою лепту в развитие PiratBit!
    Комментировать посты могут только пользователи прошедшие не сложную регистрацию
    Показать сообщения:    

    Волынь через торрент
    Скачать бесплатно Волынь
    Волынь скачать торрент
    Волынь смотреть онлайн
    Cкачать фильм Волынь бесплатно
    Волынь скачать торрент в хорошем качестве
    Волынь смотреть онлайн бесплатно в хорошем качестве


    Вы не можете начинать темы
    Вы не можете отвечать на сообщения
    Вы не можете редактировать свои сообщения
    Вы не можете удалять свои сообщения
    Вы не можете голосовать в опросах
    Вы не можете прикреплять файлы к сообщениям
    Вы можете скачивать файлы