>

5.6

iTunes

6.1

MVO

5.7

MVO

1

7.4

1 сезон

6.8

iTunes

7.2

1 сезон

13

6.7

1 сезон

8.3

RePack

30

Deluxe

pack

9.9

Лицензия

ВАЖНО

ИГРА 18+

pack

7.3

RePack

MK11

7.7

RePack

jed

7.8

RePack

fifa19

8.5

RePack

RDR2

RePack

NEED FOR SPEED™ PAYBACK

4 сезон

9 сезон

Бесстыжие 9 сезон

Все сериалы

все сериалы на PB.wtf

RePack

FAR CRY 5

Anonymous, доброе утро, мы катастрофически не успеваем собрать деньги на оплату серверов, помогите нам пожалуйста 5,10,15р., для нас важна любая помощь . В качестве благодарности мы отключим Вам всю рекламу на сайте (укажите свой ник в строку Ваше имя)!

×
  
Magnet ссылка

И проиграли бой / In Dubious Battle (Джеймс Франко) [2016, драма, WEB-DLRip] Любительский [многоголосый] pb.wtf

И проиграли бой через торрент pb.wtf

Размер: 1.46 GB | Добавлен: 4 года 7 мес. назад | Торрент скачан:211 раз
Смотреть онлайн И проиграли бой | Скачать    Ребята, помогите собрать деньги на оплату серверов!!!

19-02-2017 14:20 И проиграли бой Скачать торрент  


И проиграли бой / In Dubious Battle


ИНФОРМАЦИЯ:
Год выпуска:2016
Страна: США
Жанр: драма
Продолжительность: 01:54:39
Перевод: Любительский [многоголосый]
Режиссер: Джеймс Франко

В Ролях:


Джеймс Франко (Mac), Брайан Крэнстон (Sheriff), Роберт Дювалл (Bolton), Эд Харрис (Joy), Селена Гомес (Lisa), Нат Вулф (Jim), Винсент Д’Онофрио (London), Ана О’Райли (Edie), Анали Типтон (Vera), Джек Келер (Dr. Burton), Скотт Хэйз (Frank the Foreman), Сэм Шепард (Mr. Anderson)

ОПИСАНИЕ:
1930 год. Решающий момент в истории США - рабочие по всей стране начинают создавать профсоюзы для защиты своих прав, пытаются бороться за лучшее обращение и достойную заработную плату. В Калифорнийской долине между мигрантами-сборщиками яблок и членами ассоциации местных овощеводов возникает трудовой конфликт. Активист «Партии» Джим Нолан, понимая важность организованного труда, начинает участвовать в рабочем движении и организовывает крупную забастовку с участием около 900 сборщиков яблок, чтобы привлечь больше людей к своему делу.

  • Мировая премьера:3 сентября 2016

    ТЕХ.ДАННЫЕ:
    Качество: WEB-DLRip
    Формат: AVI
    Видео: XviD, 720x304 (2.35:1), 1617 kbps, 23,976 fps, 0,308 bpp
    Аудио: AC3 / 2.0 / 48 kHz / 192 kbps /


    General
    Complete name : W:\Торенты\In.Dubious.Battle.2016.P.WEB-DLRip.14OOMB_KOSHARA.avi
    Format : AVI
    Format/Info : Audio Video Interleave
    File size : 1.46 GiB
    Duration : 1 h 54 min
    Overall bit rate : 1 819 kb/s
    Writing application : VirtualDubMod 1.5.10.2 (build 2540/release)
    Writing library : VirtualDubMod build 2540/release

    Video
    ID : 0
    Format : MPEG-4 Visual
    Format profile : Advanced Simple@L5
    Format settings, BVOP : 2
    Format settings, QPel : No
    Format settings, GMC : No warppoints
    Format settings, Matrix : Default (MPEG)
    Codec ID : XVID
    Codec ID/Hint : XviD
    Duration : 1 h 54 min
    Bit rate : 1 618 kb/s
    Width : 720 pixels
    Height : 304 pixels
    Display aspect ratio : 2.35:1
    Frame rate : 23.976 (24000/1001) FPS
    Color space : YUV
    Chroma subsampling : 4:2:0
    Bit depth : 8 bits
    Scan type : Progressive
    Compression mode : Lossy
    Bits/(Pixel*Frame) : 0.308
    Stream size : 1.30 GiB (89%)
    Writing library : XviD 1.2.1 (UTC 2008-12-04)

    Audio
    ID : 1
    Format : AC-3
    Format/Info : Audio Coding 3
    Mode extension : CM (complete main)
    Format settings, Endianness : Big
    Codec ID : 2000
    Duration : 1 h 54 min
    Bit rate mode : Constant
    Bit rate : 192 kb/s
    Channel(s) : 2 channels
    Channel positions : Front: L R
    Sampling rate : 48.0 kHz
    Frame rate : 31.250 FPS (1536 spf)
    Compression mode : Lossy
    Stream size : 157 MiB (11%)
    Alignment : Split accross interleaves
    Interleave, duration : 42 ms (1.00 video frame)
    Interleave, preload duration : 500 ms
    Скриншоты:

    © Оформление by .::Ворон::.
    pb.wtf
    !Ворон писал(а):

    Имеется реклама



  • Скачать И проиграли бой через торрент https://pic1.kartinco.top/images/61/ordi9.jpg Скачать, смотреть онлайн И проиграли бой бесплантно в хорошем качестве Е:1930 год. Решающий момент в истории США - рабочие по всей стране начинают создавать профсоюзы для защиты своих прав, пытаются бороться за ... 8.5 10 6
    Торрент: Зарегистрирован [2017-02-19 14:20] · скачан: 211 раз
    Статус: T временная
    Размер: 1.46 GB
    Как cкачать? Как скачать И проиграли бой через торрент | UTorrent

    % Раздел Тема Автор DL S | L
    Фильмы 2016 [DVDrip, WEB-DLRip, HDrip] (DUB, MVO) [ 1.62 GB ] И проиграли бой / In Dubious Battle [2016 HDRip] [Line] killermax2013 Скачать
    1 | 0
    # Фильмы (мультфильмы) cо спонсором показа (Новинки AVI/MKV) [ 5.05 GB ] И проиграли бой / In Dubious Battle [2016 BDRip 720p] DUB [Line] bober100 Скачать
    1 | 0
    T Фильмы (мультфильмы) cо спонсором показа (Новинки AVI/MKV) [ 1.46 GB ] И проиграли бой / In Dubious Battle [2016 HDRip] DUB [Line] bober100 Скачать
    1 | 0
    T Фильмы (WEB-DL 720p, 1080p) [ 4.34 GB ] И проиграли бой / In Dubious Battle [2016 WEB-DL 1080p] Любительский [многоголосый] Ворон Скачать
    1 | 0

    28-11-2019 20:33  

    Отключить всю рекламу на сайте

      Дорогой пользователь! Огромная просьба, поблагодарите релизера, оцените раздачу и оставьте свои комментарий, если Вы скачали И проиграли бой через торрент бесплатно!
      Комментировать посты могут только пользователи прошедшие не сложную регистрацию
      Показать сообщения:    

      И проиграли бой через торрент
      Скачать бесплатно И проиграли бой
      И проиграли бой скачать торрент
      И проиграли бой смотреть онлайн
      Cкачать фильм И проиграли бой бесплатно
      И проиграли бой скачать торрент в хорошем качестве
      И проиграли бой смотреть онлайн бесплатно в хорошем качестве


      Вы не можете начинать темы
      Вы не можете отвечать на сообщения
      Вы не можете редактировать свои сообщения
      Вы не можете удалять свои сообщения
      Вы не можете голосовать в опросах
      Вы не можете прикреплять файлы к сообщениям
      Вы можете скачивать файлы