2 сезон

iTunes

1 сезон

1

iTunes

iTunes

iTunes

1 сезон

RePack

30

ИГРА 18+

pack

ВАЖНО

!!Акция!!

Alien_RageХит недели

RePack

MK11
pack

Забери бонус

RePack

jed

!!Акция!!

Alien_Rage

RePack

fifa19

RePack

Assassins Creed: Odyssey

RePack

NEED FOR SPEED™ PAYBACK

4 сезон

9 сезон

Бесстыжие 9 сезон

Все сериалы

все сериалы на PB.wtf

RePack

FAR CRY 5
  

Рая знает / Сезон 1 / Серии: 1-10 из 10 (Александр Баранов (II)) [2015 г., Детектив, комедия, мелодрама, WEB-DLRip] Русский] от R.G.Resident pb.wtf

Рая знает через торрент pb.wtf

Размер: 5.37 GB | Добавлен: 3 года 8 мес. назад | Торрент скачан:60 раз
Скачать  

19-02-2017 16:35 Рая знает Скачать торрент  

Рая знает
Год выпуска: 2015
Страна: Россия, «Нон-Стоп Продакшн»
Жанр: Детектив, комедия, мелодрама
Продолжительность: 10 x ~ 00:45:00
Язык: Русский

Режиссер: Александр Баранов (II)



В ролях: Ирина Пегова, Дмитрий Дюжев, Тимофей Трибунцев, Ольга Ломоносова, Юлия Ауг, Агриппина Стеклова, Евгения Шипова, Алла Юганова, Дмитрий Калистратов, Илья Соболев, Алексей Сидоров (II), Виталия Корниенко

Описание: Рая Полуйчик — девушка энергичная и активная. Она работает парикмахером в салоне эконом-класса и прекрасно разбирается в вопросах женской красоты. Правда в личной жизни это ей совсем не помогает. Застав своего последнего ухажера в объятиях другой, Рая немедленно выставляет его вон. Однако долго горевать об очередном поражении ей не приходится. Рая узнает, что ее давний друг — участковый Петров наконец-то получил должность следователя, а на его место прислали человека из другого города — скромного и интеллигентного Владимира Костюкова. Рая немедленно берет нового участкового под свое крыло.

Качество: WEB-DLRip
Формат: AVI
Видео кодек: XviD
Аудио кодек: AC3
Видео: 720x384 (1.88:1), 25 fps, XviD build 73 ~1478 kbps avg, 0.21 bit/pixel
Аудио#1: 48 kHz, AC3 Dolby Digital, 2/0 (L,R) ch, ~192.00 kbps avg
Релиз от: ruslanishe
General
Raya.znaet.XviD.2015.WEB-DLRip.R.G.Resident\001.avi
Format : AVI
Format/Info : Audio Video Interleave
File size : 550 MiB
Duration : 45mn 49s
Overall bit rate : 1 680 Kbps
Director : ruslanishe
Writing application : VirtualDubMod 1.5.10.3 | www.virtualdub-fr.org || (build 2550/release)
Copyright : R.G.Resident

Video
ID : 0
Format : MPEG-4 Visual
Format profile : Advanced Simple@L5
Format settings, BVOP : 2
Format settings, QPel : No
Format settings, GMC : No warppoints
Format settings, Matrix : Custom
Codec ID : XVID
Codec ID/Hint : XviD
Duration : 45mn 49s
Bit rate : 1 478 Kbps
Width : 720 pixels
Height : 384 pixels
Display aspect ratio : 1.85:1
Frame rate : 25.000 fps
Color space : YUV
Chroma subsampling : 4:2:0
Bit depth : 8 bits
Scan type : Progressive
Compression mode : Lossy
Bits/(Pixel*Frame) : 0.214
Stream size : 484 MiB (88%)
Writing library : XviD 73

Audio
ID : 1
Format : AC-3
Format/Info : Audio Coding 3
Mode extension : CM (complete main)
Format settings, Endianness : Big
Codec ID : 2000
Duration : 45mn 49s
Bit rate mode : Constant
Bit rate : 192 Kbps
Channel(s) : 2 channels
Channel positions : Front: L R
Sampling rate : 48.0 KHz
Bit depth : 16 bits
Compression mode : Lossy
Stream size : 62.9 MiB (11%)
Alignment : Split accross interleaves
Interleave, duration : 40 ms (1.00 video frame)
Interleave, preload duration : 500 ms

pb.wtf



Скачать Рая знает через торрент http://i056.radikal.ru/1702/cd/692e8d13e8c7.jpg Скачать фильм Рая знает через торрент бесплантно в хорошем качестве Описание: Рая Полуйчик — девушка энергичная и активная. Она работает парикмахером в салоне эконом-класса и прекрасно разбирается в вопросах ... 9.8 10 5
× Info от релизера! РЕКЛАМЫ НЕТ
Info! Золотая раздача, скачанное не засчитывается.
Торрент: Зарегистрирован [2017-02-19 18:17] · скачан: 60 раз
Статус: √ проверено
Размер: 5.37 GB
Как cкачать? Как скачать Рая знает через торрент | qTorrent

28-11-2019 20:33  

Отключить всю рекламу на сайте

    Дорогой пользователь! Огромная просьба, поблагодарите релизера, оцените раздачу и оставьте свои комментарий, если Вы скачали Рая знает через торрент бесплатно! Внесите свою лепту в развитие PiratBit!
    Комментировать посты могут только пользователи прошедшие не сложную регистрацию
    Показать сообщения:    

    Рая знает через торрент
    Скачать бесплатно Рая знает
    Рая знает скачать торрент
    Рая знает смотреть онлайн
    Cкачать фильм Рая знает бесплатно
    Рая знает скачать торрент в хорошем качестве
    Рая знает смотреть онлайн бесплатно в хорошем качестве


    Вы не можете начинать темы
    Вы не можете отвечать на сообщения
    Вы не можете редактировать свои сообщения
    Вы не можете удалять свои сообщения
    Вы не можете голосовать в опросах
    Вы не можете прикреплять файлы к сообщениям
    Вы можете скачивать файлы