2 сезон

iTunes

MVO

1

2 сезон

iTunes

iTunes

1 сезон

RePack

30

Ultimate

ВАЖНО

ИГРА 18+

pack

RePack

MK11
pack

Легкие деньги

RePack

jed

RePack

fifa19

RePack

RDR2

RePack

NEED FOR SPEED™ PAYBACK

4 сезон

9 сезон

Бесстыжие 9 сезон

Все сериалы

все сериалы на PB.wtf

RePack

FAR CRY 5

Anonymous, доброй ночи, мы не успеваем собрать деньги на оплату серверов за декабрь и январь, помогите нам пожалуйста в это трудное время. В качестве благодарности мы отключим Вам всю рекламу на сайте (укажите свой ник в строку Ваше имя)!

×
  
Magnet ссылка

Доктор Стрэндж в 3Д / Doctor Strange 3D (Скотт Дерриксон / Scott Derrickson) [2016, Фантастика, Фэнтези, Боевик, Приключения, BDrip, 1080p] DUB (Лицензия) / OverUnder / Вертикальная стереопара pb.wtf

Доктор Стрэндж в 3Д через торрент pb.wtf

Размер: 10.96 GB | Добавлен: 3 года 10 мес. назад | Торрент скачан:265 раз
Скачать  

20-02-2017 03:47 Доктор Стрэндж в 3Д Скачать торрент  

Доктор Стрэндж / Doctor Strange
IMAX Edition
Год выпуска: 2016
Страна: США (Marvel Studios, Walt Disney Studios Motion Pictures)
Жанр: Фантастика, Фэнтези, Боевик, Приключения
Продолжительность: 01:55:05

Перевод: Профессиональный дублированный(лицензия)
Русские субтитры: нет
Режиссер: Скотт Дерриксон / Scott Derrickson

В ролях: Бенедикт Камбербэтч, Тильда Суинтон, Мадс Миккельсен, Чиветель Эджиофор, Рэйчел МакАдамс, Бенедикт Вонг, Майкл Стулбарг, Бенджамин Брэтт, Скотт Эдкинс, Зара Питиан

Описание: Страшная автокатастрофа поставила крест на карьере успешного нейрохирурга Доктора Стрэнджа. Отчаявшись, он отправляется в путешествие в поисках исцеления и открывает в себе невероятные способности к трансформации пространства и времени. Теперь он — связующее звено между параллельными измерениями, а его миссия — защищать жителей Земли и противодействовать Злу, какое бы обличие оно ни принимало.

Сэмпл: http://sendfile.su/1313532

Качество: BDrip, 1080p
Контейнер: MKV
Формат 3D: OverUnder / Вертикальная стереопара
Порядок ракурсов: левый ракурс первый
Видео кодек: x264
Аудио кодек: AC3
Видео: AVC / High@L5.0 / 23,976 fps / 1920х2160 / 12,1 Мбит/сек
Аудио: Русский / AC3 / 48 KHz / 5.1 ch / 640 Кбит/сек(лицензия)
Аудио 2: Английский / AC3 / 48 KHz / 5.1 ch / 640 Кбит/сек

Релиз группы: ВНИМАНИЕ ! На встроенных ТВ-плеерах работать не будет!!!

ТВ Samsung в названии которого есть надпись Ultra HD , и LG Ultra HD 800 серии, Xiaomi Mi TV 2 воспроизводят полные стереопары встроенными плеерами
Железные плееры на которых воспроизводятся полные стереопары:Popcorn C-200 , Dune HD Smart D1 , Dune HD DUO , Dune HD Smart H1 , Dune HD Smart B1 , Dune HD Max , Dune HD TV-303D , Dune HD Base 3D, Philips HMP7001, Aura HD
Чтобы изображение было на весь экран в плеере выставляем, если рип 1920х1600 - то выставляем 2.35:1 , если 1920х2160 - то выставляем 16:9

1.03.2017. Релиз обновлён - русская звуковая дорога iTunes заменена на лицензию.
Желающие, скачайте заново торрент-файл.
Общее
Уникальный идентификатор : 251164008915105271418328881742126454418 (0xBCF46DB6E846E1DF96B0CF93F2371692)
Полное имя : E:\закачки\Doctor Strange.Rip by SeRoGa00.mkv
Формат : Matroska
Версия формата : Version 2
Размер файла : 10,8 Гбайт
Продолжительность : 1 ч. 55 м.
Общий поток : 13,4 Мбит/сек
Дата кодирования : UTC 2017-02-20 02:44:28
Программа кодирования : mkvmerge v3.4.0 ('Rapunzel') сборка от May 15 2010 09:38:20
Библиотека кодирования : libebml v0.8.0 + libmatroska v0.9.0

Видео
Идентификатор : 1
Формат : AVC
Формат/Информация : Advanced Video Codec
Профиль формата : High@L5.0
Параметр CABAC формата : Да
Параметр ReFrames формата : 4 кадра
Идентификатор кодека : V_MPEG4/ISO/AVC
Продолжительность : 1 ч. 55 м.
Битрейт : 12,1 Мбит/сек
Ширина : 1920 пикселей
Высота : 2160 пикселей
Соотношение сторон : 0,889
Частота кадров : 23,976 кадра/сек
Цветовое пространство : YUV
Субдискретизация насыщенности : 4:2:0
Битовая глубина : 8 бит
Тип развёртки : Прогрессивная
Бит/(Пиксели*Кадры) : 0.121
Размер потока : 9,72 Гбайт (90%)
Заголовок : Rip by SeRoGa00
Библиотека кодирования : x264 core 148 r2638 7599210
Настройки программы : cabac=1 / ref=4 / deblock=1:-3:-3 / analyse=0x3:0x113 / me=umh / subme=10 / psy=1 / psy_rd=1.00:0.15 / mixed_ref=1 / me_range=24 / chroma_me=1 / trellis=2 / 8x8dct=1 / cqm=0 / deadzone=21,11 / fast_pskip=1 / chroma_qp_offset=-3 / threads=9 / lookahead_threads=2 / sliced_threads=0 / nr=0 / decimate=1 / interlaced=0 / bluray_compat=0 / constrained_intra=0 / bframes=10 / b_pyramid=2 / b_adapt=2 / b_bias=0 / direct=3 / weightb=1 / open_gop=0 / weightp=2 / keyint=250 / keyint_min=23 / scenecut=40 / intra_refresh=0 / rc_lookahead=60 / rc=crf / mbtree=1 / crf=18.0 / qcomp=0.60 / qpmin=10 / qpmax=69 / qpstep=4 / vbv_maxrate=40000 / vbv_bufsize=40000 / crf_max=0.0 / nal_hrd=none / filler=0 / ip_ratio=1.40 / aq=1:1.00
Язык : English
Default : Нет
Forced : Нет

Аудио #1
Идентификатор : 2
Формат : AC-3
Формат/Информация : Audio Coding 3
Расширение режима : CM (complete main)
Параметр Endianness формата : Big
Идентификатор кодека : A_AC3
Продолжительность : 1 ч. 55 м.
Вид битрейта : Постоянный
Битрейт : 640 Кбит/сек
Каналы : 6 каналов
Расположение каналов : Front: L C R, Side: L R, LFE
Частота : 48,0 КГц
Битовая глубина : 16 бит
Метод сжатия : С потерями
Размер потока : 317 Мбайт (3%)
Язык : Russian
Default : Да
Forced : Нет

Аудио #2
Идентификатор : 3
Формат : AC-3
Формат/Информация : Audio Coding 3
Расширение режима : CM (complete main)
Параметр Endianness формата : Big
Идентификатор кодека : A_AC3
Продолжительность : 1 ч. 55 м.
Вид битрейта : Постоянный
Битрейт : 640 Кбит/сек
Каналы : 6 каналов
Расположение каналов : Front: L C R, Side: L R, LFE
Частота : 48,0 КГц
Битовая глубина : 16 бит
Метод сжатия : С потерями
Размер потока : 528 Мбайт (5%)
Язык : English
Default : Нет
Forced : Нет
pb.wtf



Скачать Доктор Стрэндж в 3Д через торрент http://s019.radikal.ru/i637/1702/f6/7b5f47db79c1.png Скачать фильм Доктор Стрэндж в 3Д через торрент бесплантно в хорошем качестве Описание: Страшная автокатастрофа поставила крест на карьере успешного нейрохирурга Доктора Стрэнджа. Отчаявшись, он отправляется в ... 9.5 10 12
Info! Золотая раздача, скачанное не засчитывается.
Торрент: Зарегистрирован [2017-03-01 09:34] · скачан: 265 раз
Статус: √ проверено
Размер: 10.96 GB
Как cкачать? Как скачать Доктор Стрэндж в 3Д через торрент | UTorrent



Последний раз редактировалось: serega768 (2017-03-01 09:34), всего редактировалось 1 раз

28-11-2019 20:33  

Отключить всю рекламу на сайте

20-02-2017 18:48 Доктор Стрэндж в 3Д Скачать торрент  

разрешение маленькое,нет 1900 и2100pb.wtf



28-02-2017 20:45 Доктор Стрэндж в 3Д Скачать торрент  

главное ,что бы артефактов не было как по мне. Большое спасибо pb.wtf



01-03-2017 09:34 Доктор Стрэндж в 3Д Скачать торрент  

1.03.2017. Релиз обновлён - русская звуковая дорога iTunes заменена на лицензию.
Желающие, скачайте заново торрент-файл.pb.wtf



01-03-2017 13:40 Доктор Стрэндж в 3Д Скачать торрент  

Очень большая просьба РЕЛИЗЕРУ, а можно конвертировать чтобы и для встроенных 3D теликов работало ((( пусть похуже качество будет но главное работало!!! Можно же отдельной раздачейpb.wtf



08-03-2017 19:03 Доктор Стрэндж в 3Д Скачать торрент  

А фантастические твари будут в 3D ?pb.wtf



09-03-2017 05:16 Доктор Стрэндж в 3Д Скачать торрент  

Если будет блюрик, будет и рип.pb.wtf



    Дорогой пользователь! Огромная просьба, поблагодарите релизера, оцените раздачу и оставьте свои комментарий, если Вы скачали Доктор Стрэндж в 3Д через торрент бесплатно! Внесите свою лепту в развитие PiratBit!
    Комментировать посты могут только пользователи прошедшие не сложную регистрацию
    Показать сообщения:    

    Доктор Стрэндж в 3Д через торрент
    Скачать бесплатно Доктор Стрэндж в 3Д
    Доктор Стрэндж в 3Д скачать торрент
    Доктор Стрэндж в 3Д смотреть онлайн
    Cкачать фильм Доктор Стрэндж в 3Д бесплатно
    Доктор Стрэндж в 3Д скачать торрент в хорошем качестве
    Доктор Стрэндж в 3Д смотреть онлайн бесплатно в хорошем качестве


    Вы не можете начинать темы
    Вы не можете отвечать на сообщения
    Вы не можете редактировать свои сообщения
    Вы не можете удалять свои сообщения
    Вы не можете голосовать в опросах
    Вы не можете прикреплять файлы к сообщениям
    Вы можете скачивать файлы