Ссылка на приватное зеркало нашего сайта всего за 1$. Внимание количество ограничено!!!

2 сезон

iTunes

1 сезон

1

iTunes

iTunes

iTunes

1 сезон

RePack

30

ИГРА 18+

pack

ВАЖНО

!!Акция!!

Alien_RageХит недели

RePack

MK11
pack

Забери бонус

RePack

jed

!!Акция!!

Alien_Rage

RePack

fifa19

RePack

Assassins Creed: Odyssey

RePack

NEED FOR SPEED™ PAYBACK

4 сезон

9 сезон

Бесстыжие 9 сезон

Все сериалы

все сериалы на PB.wtf

RePack

FAR CRY 5
  

Осада базы "Глория" / The Siege of Firebase Gloria (Брайан Тренчард-Смит) [1989, боевик, драма, военный, BDRip 720p by msltel] DVO, AVO pb.wtf

Осада базы "Глория" через торрент pb.wtf

Размер: 4.67 GB | Добавлен: 3 года 8 мес. назад | Торрент скачан:122 раза
Скачать  

20-02-2017 08:06 Осада базы "Глория" Скачать торрент  

Название: Осада базы "Глория"
Оригинальное название: The Siege of Firebase Gloria
Год выпуска: 1989
Страна: Австралия, Филиппины
Жанр: боевик, драма, военный
Продолжительность: 01:39:36
Перевод: профессиональный двухголосый, авторский

Режиссёр: Брайан Тренчард-Смит

В ролях: Вингз Хаузер, Р. Ли Эрми, Роберт Аревало, Марк Нили, Гаррисон Хершбергер, Клайд Джонс, Марджи Герард, Джон Кэлвин, Альберт Попвелл, Майкл Круз, Эрих Хаузер, Гаел Ромеро, Дон Уилсон, Ник Николсон, Дэн Остин, Дэвид Андерсон, Уоррен Диксон, Бенни Коллинз, Грег Уолш, Генри Стрцалковский, Лейла Джонсон, Венди Стоун

Описание: Отряд американских солдат патрулирует территорию и попадает на базу «Глория» в джунглях, где царит полный разброд и брожение: командир базы в стельку пьяный, солдаты долбят дурь и постреливают по джунглям. Командир отряда берет командование на себя. Они с большими потерями отбивают мощную атаку гуков…



Качество: BDRip 720p
Формат: MKV
Видео: MPEG-4 AVC, 6130 Кбит/с, 1280x700, 23,976 кадра/с
Аудио 1: русский, AC3, 192 kbps, 2 ch, 48 kHz [профессиональный двухголосый, HTB+]
Аудио 2: русский, AC3, 192 kbps, 2 ch, 48 kHz [авторский, Антон Карповский]
Аудио 3: английский, AC3, 192 kbps, 2 ch, 48 kHz [оригинал]
Имеются неименованные главы/чаптеры.
Общее
Уникальный идентификатор : 202571247921100876324469872171671324097 (0x9865CDA01BCF74F282B3B5991C5F85C1)
Полное имя : D:\Video\Осада базы Глория.1989.BDRip.720p by msltel.mkv
Формат : Matroska
Версия формата : Version 4 / Version 2
Размер файла : 4,67 Гбайт
Продолжительность : 1 ч. 39 м.
Общий поток : 6708 Кбит/сек
Название фильма : Rip by msltel
Дата кодирования : UTC 2017-02-20 06:01:51
Программа кодирования : mkvmerge v8.2.0 ('World of Adventure') 64bit
Библиотека кодирования : libebml v1.3.1 + libmatroska v1.4.2

Видео
Идентификатор : 1
Формат : AVC
Формат/Информация : Advanced Video Codec
Профиль формата : High@L4.1
Параметр CABAC формата : Да
Параметр ReFrames формата : 9 кадров
Идентификатор кодека : V_MPEG4/ISO/AVC
Продолжительность : 1 ч. 39 м.
Битрейт : 6130 Кбит/сек
Ширина : 1280 пикселей
Высота : 700 пикселей
Соотношение сторон : 1,85:1
Режим частоты кадров : Постоянный
Частота кадров : 23,976 (24000/1001) кадра/сек
Цветовое пространство : YUV
Субдискретизация насыщенности : 4:2:0
Битовая глубина : 8 бит
Тип развёртки : Прогрессивная
Бит/(Пиксели*Кадры) : 0.285
Размер потока : 4,26 Гбайт (91%)
Библиотека кодирования : x264 core 146 r2538 121396c
Настройки программы : cabac=1 / ref=9 / deblock=1:-3:-2 / analyse=0x3:0x113 / me=umh / subme=11 / psy=1 / psy_rd=1.00:0.15 / mixed_ref=1 / me_range=32 / chroma_me=1 / trellis=2 / 8x8dct=1 / cqm=0 / deadzone=21,11 / fast_pskip=0 / chroma_qp_offset=-3 / threads=6 / lookahead_threads=1 / sliced_threads=0 / nr=0 / decimate=1 / interlaced=0 / bluray_compat=0 / constrained_intra=0 / bframes=12 / b_pyramid=2 / b_adapt=2 / b_bias=0 / direct=1 / weightb=1 / open_gop=0 / weightp=2 / keyint=230 / keyint_min=23 / scenecut=40 / intra_refresh=0 / rc_lookahead=40 / rc=crf / mbtree=0 / crf=19.9 / qcomp=0.60 / qpmin=0 / qpmax=69 / qpstep=4 / vbv_maxrate=62500 / vbv_bufsize=78125 / crf_max=0.0 / nal_hrd=none / filler=0 / ip_ratio=1.40 / pb_ratio=1.30 / aq=1:1.00
Язык : English
Default : Да
Forced : Нет

Аудио #1
Идентификатор : 2
Формат : AC-3
Формат/Информация : Audio Coding 3
Расширение режима : CM (complete main)
Параметр Endianness формата : Big
Идентификатор кодека : A_AC3
Продолжительность : 1 ч. 39 м.
Вид битрейта : Постоянный
Битрейт : 192 Кбит/сек
Каналы : 2 канала
Расположение каналов : Front: L R
Частота : 48,0 КГц
Частота кадров : 31,250 кадров/сек (1536 spf)
Битовая глубина : 16 бит
Метод сжатия : С потерями
Размер потока : 137 Мбайт (3%)
Заголовок : DVO (HTB+)
Язык : Russian
Default : Да
Forced : Нет

Аудио #2
Идентификатор : 3
Формат : AC-3
Формат/Информация : Audio Coding 3
Расширение режима : CM (complete main)
Параметр Endianness формата : Big
Идентификатор кодека : A_AC3
Продолжительность : 1 ч. 39 м.
Вид битрейта : Постоянный
Битрейт : 192 Кбит/сек
Каналы : 2 канала
Расположение каналов : Front: L R
Частота : 48,0 КГц
Частота кадров : 31,250 кадров/сек (1536 spf)
Битовая глубина : 16 бит
Метод сжатия : С потерями
Размер потока : 137 Мбайт (3%)
Заголовок : AVO (Антон Карповский)
Язык : Russian
Default : Нет
Forced : Нет

Аудио #3
Идентификатор : 4
Формат : AC-3
Формат/Информация : Audio Coding 3
Расширение режима : CM (complete main)
Параметр Endianness формата : Big
Идентификатор кодека : A_AC3
Продолжительность : 1 ч. 39 м.
Вид битрейта : Постоянный
Битрейт : 192 Кбит/сек
Каналы : 2 канала
Расположение каналов : Front: L R
Частота : 48,0 КГц
Частота кадров : 31,250 кадров/сек (1536 spf)
Битовая глубина : 16 бит
Метод сжатия : С потерями
Размер потока : 137 Мбайт (3%)
Заголовок : original
Язык : English
Default : Нет
Forced : Нет

Меню
00:00:00.000 : :Chapter 01
00:11:05.498 : :Chapter 02
00:23:05.926 : :Chapter 03
00:36:01.868 : :Chapter 04
00:47:39.398 : :Chapter 05
01:01:42.657 : :Chapter 06
01:15:45.124 : :Chapter 07
01:25:46.015 : :Chapter 08
pb.wtf



Скачать Осада базы "Глория" через торрент http://s019.radikal.ru/i614/1702/5f/19b2e3e4462a.jpg Скачать фильм Осада базы "Глория" через торрент бесплантно в хорошем качестве Описание: Отряд американских солдат патрулирует территорию и попадает на базу «Глория» в джунглях, где царит полный разброд и брожение: ... 9.7 10 7
Info! Золотая раздача, скачанное не засчитывается.
Торрент: Зарегистрирован [2017-02-20 08:06] · скачан: 122 раз
Статус: √ проверено
Размер: 4.67 GB
Как cкачать? Как скачать Осада базы "Глория" через торрент | qTorrent

28-11-2019 20:33  

Отключить всю рекламу на сайте

20-02-2017 11:07 Осада базы "Глория" Скачать торрент  

надо глянуть )
про "мощь" американской армии ещё есть занимательное кино-southern comfort )pb.wtf



20-02-2017 12:21 Осада базы "Глория" Скачать торрент  

super pb.wtf



23-02-2017 18:13 Осада базы "Глория" Скачать торрент  

довольно неплохо, даже понравилось.pb.wtf



    Дорогой пользователь! Огромная просьба, поблагодарите релизера, оцените раздачу и оставьте свои комментарий, если Вы скачали Осада базы "Глория" через торрент бесплатно! Внесите свою лепту в развитие PiratBit!
    Комментировать посты могут только пользователи прошедшие не сложную регистрацию
    Показать сообщения:    

    Осада базы "Глория" через торрент
    Скачать бесплатно Осада базы "Глория"
    Осада базы "Глория" скачать торрент
    Осада базы "Глория" смотреть онлайн
    Cкачать фильм Осада базы "Глория" бесплатно
    Осада базы "Глория" скачать торрент в хорошем качестве
    Осада базы "Глория" смотреть онлайн бесплатно в хорошем качестве


    Вы не можете начинать темы
    Вы не можете отвечать на сообщения
    Вы не можете редактировать свои сообщения
    Вы не можете удалять свои сообщения
    Вы не можете голосовать в опросах
    Вы не можете прикреплять файлы к сообщениям
    Вы можете скачивать файлы