Ссылка на приватное зеркало нашего сайта всего за 1$. Внимание количество ограничено!!!

2 сезон

iTunes

1 сезон

1

2 сезон

2 сезон

iTunes

1 сезон

RePack

30

Новинка

ВАЖНО

ИГРА 18+

pack

RePack

MK11
pack

Забери бонус

RePack

jed

!!Акция!!

Alien_Rage

RePack

fifa19

RePack

Assassins Creed: Odyssey

RePack

NEED FOR SPEED™ PAYBACK

4 сезон

9 сезон

Бесстыжие 9 сезон

Все сериалы

все сериалы на PB.wtf

RePack

FAR CRY 5
  

Нереальное шоу / Нереально / UnREAL / Сезон 1 / Серии 1-10 из 10 (Питер О’Фаллон / Peter O'Fallon, Ута Бризвитц / Uta Briesewitz, Лев Л. Спиро / Lev L. Spiro) [2015, США, драма, WEB-DLRip-AVC] MVO [BaibaKo] pb.wtf

Нереальное шоу через торрент pb.wtf

Размер: 8.07 GB | Добавлен: 3 года 9 мес. назад | Торрент скачан:7 раз
Скачать  

20-02-2017 08:15 Нереальное шоу Скачать торрент  

Нереальное шоу / Нереально / UnREAL
«Добро пожаловать в мир плохих людей, делающих хорошее телевидение»


  • Год выпуска: 2015
  • Страна: США
  • Жанр: драма
  • Продолжительность: 00:41:53 (Серия)
  • Перевод: Профессиональный многоголосый [BaibaKo]
  • Субтитры: русские (Forced / Forced),
  • Режиссер: Питер О’Фаллон / Peter O'Fallon, Ута Бризвитц / Uta Briesewitz, Лев Л. Спиро / Lev L. Spiro
  • В ролях:

    Шири Эпплби (Rachel Goldberg), Констанс Зиммер (Quinn King), Крэйг Бирко (Chet Wilton), Джеффри Бауэр-Чепман (Jay), Джош Келли (Jeremy Caner), Бреннан Эллиотт (Graham), Женевьев Бюкнер (Madison), Эми Хилл (Dr. Wagerstein), Фредди Строма (Adam Cromwell), Моника Барбаро (Yael), Denée Benton (Ruby Carter), Джоанна Э. Брэдди (Anna Martin)


  • Настоящий хаос окружает съемки любовных реалити-шоу. За кулисами может оказаться всё гораздо интереснее, чем в эфире. В погоне за рейтингами приходится всячески манипулировать конкурсантами, чтобы те выдали необходимый «материал» для шоу. А продюсер может уволить кого угодно за малейший недочёт.
  • Рейтинг:



  • Качество: WEB-DLRip-AVC
  • Формат: :MPEG-4
  • Видео кодек: AVC
  • Аудио кодек: AC3
  • Видео: 2000 Кбит/сек, 1024*574 (16:9), в 23,976 (24000/1001) кадра/сек, AVC
  • Аудио №1: русский 384 Кбит/сек, 48,0 КГц, 16 бит, 2 канала, AC-3 |[BaibaKo]|
  • Аудио №2: английский 384 Кбит/сек, 48,0 КГц, 16 бит, 2 канала, AC-3
  • Релиз от: GEKADOL

    Общее
    Полное имя : K:\Нереальное шоу (UnReal 1)\UnREAL.s01e10.WEB-DLRip-AVC.Rus.Eng.BaibaKo.tv.mp4
    Формат : MPEG-4
    Профиль формата : Base Media
    Идентификатор кодека : isom (isom/iso2/avc1/mp41)
    Размер файла : 854 Мбайт
    Продолжительность : 43 м. 4 с.
    Общий поток : 2772 Кбит/сек
    Программа кодирования : XviD4PSP 7.0.356 DAILY
    HDVideo : Yes
    encoding_info : MATROSKA / WEBM > MP4 Произвольный / H264 > X264 CBR 2000kbps HQ / AC3 > AC3 CBR 384kbps / AC3 > AC3 CBR 384kbps

    Видео
    Идентификатор : 1
    Формат : AVC
    Формат/Информация : Advanced Video Codec
    Профиль формата : High@L4.1
    Параметр CABAC формата : Да
    Параметр ReFrames формата : 4 кадра
    Идентификатор кодека : avc1
    Идентификатор кодека/Информация : Advanced Video Coding
    Продолжительность : 43 м. 4 с.
    Битрейт : 2000 Кбит/сек
    Ширина : 1024 пикселя
    Высота : 574 пикселя
    Соотношение сторон : 16:9
    Режим частоты кадров : Постоянный
    Частота кадров : 23,976 (24000/1001) кадра/сек
    Цветовое пространство : YUV
    Субдискретизация насыщенности : 4:2:0
    Битовая глубина : 8 бит
    Тип развёртки : Прогрессивная
    Бит/(Пиксели*Кадры) : 0.142
    Размер потока : 616 Мбайт (72%)
    Библиотека кодирования : x264 core 148 r2762M 90a61ec
    Настройки программы : cabac=1 / ref=3 / deblock=1:-1:-1 / analyse=0x3:0x133 / me=hex / subme=7 / psy=1 / psy_rd=1.00:0.20 / mixed_ref=1 / me_range=16 / chroma_me=1 / trellis=1 / 8x8dct=1 / cqm=0 / deadzone=21,11 / fast_pskip=1 / chroma_qp_offset=-3 / threads=5 / lookahead_threads=1 / sliced_threads=0 / nr=0 / decimate=1 / interlaced=0 / bluray_compat=0 / constrained_intra=0 / bframes=3 / b_pyramid=2 / b_adapt=2 / b_bias=0 / direct=3 / weightb=1 / open_gop=0 / weightp=2 / keyint=230 / keyint_min=23 / scenecut=40 / intra_refresh=0 / rc_lookahead=40 / rc=cbr / mbtree=1 / bitrate=2000 / ratetol=1.0 / qcomp=0.60 / qpmin=0 / qpmax=69 / qpstep=4 / vbv_maxrate=2000 / vbv_bufsize=30000 / nal_hrd=none / filler=0 / ip_ratio=1.40 / aq=1:1.00
    Цветовой диапазон : Limited
    Основные цвета : BT.709
    Характеристики трансфера : BT.709
    Коэффициенты матрицы : BT.709

    Аудио #1
    Идентификатор : 2
    Формат : AC-3
    Формат/Информация : Audio Coding 3
    Расширение режима : CM (complete main)
    Параметр Endianness формата : Big
    Идентификатор кодека : ac-3
    Продолжительность : 43 м. 4 с.
    Вид битрейта : Постоянный
    Битрейт : 384 Кбит/сек
    Каналы : 2 канала
    Расположение каналов : Front: L R
    Частота : 48,0 КГц
    Частота кадров : 31,250 кадров/сек (1536 spf)
    Битовая глубина : 16 бит
    Метод сжатия : С потерями
    Размер потока : 118 Мбайт (14%)
    Язык : Russian
    Default : Да
    Alternate group : 1

    Аудио #2
    Идентификатор : 3
    Формат : AC-3
    Формат/Информация : Audio Coding 3
    Расширение режима : CM (complete main)
    Параметр Endianness формата : Big
    Идентификатор кодека : ac-3
    Продолжительность : 43 м. 4 с.
    Вид битрейта : Постоянный
    Битрейт : 384 Кбит/сек
    Каналы : 2 канала
    Расположение каналов : Front: L R
    Частота : 48,0 КГц
    Частота кадров : 31,250 кадров/сек (1536 spf)
    Битовая глубина : 16 бит
    Метод сжатия : С потерями
    Размер потока : 118 Мбайт (14%)
    Язык : English
    Default : Нет
    Alternate group : 1



    Скриншоты:
    скриншот   скриншот   скриншот   скриншот   скриншот   скриншот   скриншот  
    скриншот  


    pb.wtf



  • Скачать Нереальное шоу через торрент http://i91.fastpic.ru/big/2017/0219/bb/923111a47ab31979b5d4e9c7712ae3bb.jpg Скачать фильм Нереальное шоу через торрент бесплантно в хорошем качестве qw.png Настоящий хаос окружает съемки любовных реалити-шоу. За кулисами может оказаться всё гораздо интереснее, чем в эфире. В погоне за ... 5 10 1
    Info! Золотая раздача, скачанное не засчитывается.
    Торрент: Зарегистрирован [2017-02-20 08:17] · скачан: 7 раз
    Статус: √ проверено
    Размер: 8.07 GB
    Как cкачать? Как скачать Нереальное шоу через торрент | qTorrent

    % Раздел Тема Автор DL S | L
    Зарубежные сериалы [ 8.01 GB ] Нереальное шоу / Нереально / UnREAL / Сезон 2 / Серии 1-10 из 10 [2016 WEB-DLRip-AVC] MVO [BaibaKo] GEKADOL Скачать
    1 | 0

    28-11-2019 20:33  

    Отключить всю рекламу на сайте

      Дорогой пользователь! Огромная просьба, поблагодарите релизера, оцените раздачу и оставьте свои комментарий, если Вы скачали Нереальное шоу через торрент бесплатно! Внесите свою лепту в развитие PiratBit!
      Комментировать посты могут только пользователи прошедшие не сложную регистрацию
      Показать сообщения:    

      Нереальное шоу через торрент
      Скачать бесплатно Нереальное шоу
      Нереальное шоу скачать торрент
      Нереальное шоу смотреть онлайн
      Cкачать фильм Нереальное шоу бесплатно
      Нереальное шоу скачать торрент в хорошем качестве
      Нереальное шоу смотреть онлайн бесплатно в хорошем качестве


      Вы не можете начинать темы
      Вы не можете отвечать на сообщения
      Вы не можете редактировать свои сообщения
      Вы не можете удалять свои сообщения
      Вы не можете голосовать в опросах
      Вы не можете прикреплять файлы к сообщениям
      Вы можете скачивать файлы