1 сезон

3 сезон

iTunes

1

Line

MVO

iTunes

13

1 сезон

RePack

30

Deluxe

pack

Лицензия

ВАЖНО

ИГРА 18+

pack

RePack

MK11

RePack

jed

RePack

fifa19

RePack

RDR2

RePack

NEED FOR SPEED™ PAYBACK

4 сезон

9 сезон

Бесстыжие 9 сезон

Все сериалы

все сериалы на PB.wtf

RePack

FAR CRY 5

Anonymous, добрый день, мы катастрофически не успеваем собрать деньги на оплату серверов, помогите нам пожалуйста 5,10,15р., для нас важна любая помощь . В качестве благодарности мы отключим Вам всю рекламу на сайте (укажите свой ник в строку Ваше имя)!

×
  
Magnet ссылка

Рожденные бурей (Яков Базелян, Артур Войтецкий) [1957, СССР, история, DVDRip от AVP Studio] pb.wtf

Рожденные бурей через торрент pb.wtf

Размер: 1.09 GB | Добавлен: 4 года 5 мес. назад | Торрент скачан:5 раз
Скачать  

20-02-2017 09:19 Рожденные бурей Скачать торрент  

Рожденные бурей
Страна: СССР
Производство: К/ст им. Довженко

Жанр: история
Год выпуска: 1957
Продолжительность: 01:26:51

Перевод: Не требуется
Cубтитры: нет
Оригинальная аудиодорожка: русский

Режиссер: Яков Базелян, Артур Войтецкий

В ролях:
Сергей Гурзо (старший), Ольга Бган, Анатолий Иванов (VIII), Вова Силуянов, Олег Жаков, Ада Войцик, Николай Хрящиков, Александр Гречаный, Юрий Мажуга, Александр Толстых, Павел Шпрингфельд, Константин Кульчицкий, А. Теремец, Юрий Леонидов, Валентина Ушакова, Дзидра Ритенберга, Чеслав Сушкевич, Николай Рушковский, Георгий (Юрий) Козаковский, Д. Агибалов...
Об актёрах подробней

Описание:
По одноименному роману Николая Островского.
Осень 1918 года. Немецкие войска покидают маленький городок, расположенный на границе Западной Украины и Польши. Влacть в городе захватывают пилсудчики. Вернувшийся из тюрьмы большевик Сигизмунд Раевский (Олег Жаков) возглавляет подпольный ревком. На заводах, фабриках, в железнодорожных мастерских создаются рабочие дружины. Все ждут только сигнала к восстанию. В борьбе с польскими легионерами принимают участие первые комсомольцы городка. Среди них Раймонд, сын Раевского, и девушка Олеся. С Олесей дружит рабочий паренёк Андрей Птаха (Сергей Гурзо-старший). Ревность к Раймонду, которого любит Олеся, горькое чувство неразделённой любви Андрей пытается заглушить вином, бесшабашной гульбой. Но вот на глазах у Птахи поляки убивают его старшего друга, дядю Тараса. Охваченный гневом Андрей забирается в котельную завода и включает гудок, намертво закрепив его ручку. Это служит сигналом к восстанию. Под натиском рабочих дружин бегут легионеры. Андрей, укрывшийся в котельной, успешно обороняется от врагов. Поляки обращаются за помощью к отступающим немецким войскам. Совместно им удается подавить восстание. Отряд молодёжи берет в качестве заложниц сестёр графа Могельницкого - главаря польских легионеров, с тем чтобы обменять их на руководителей восстания. Легионеры окружают домик, где расположился отряд. Но комсомольцам удается прорвать кольцо окружения и соединиться с наступающими частями Красной Армии.

Источник: DVD5 R5
Качество видео: DVDRip
Формат видео: AVI

Видео: 704x528 (4:3), 25 fps, XviD ~ 1593 kbps avg, 0.171 bit/pixel
Аудио: 48 kHz, Dolby Digital AC3 2.0, 192 kbps

Раздача от:
Общее
Полное имя : Rozhdennye.burey.1957.DVDRip_[New-team]_by_AVP_Studio.avi
Формат : AVI
Формат/Информация : Audio Video Interleave
Размер файла : 1,09 Гбайт
Продолжительность : 1 ч. 26 м.
Общий поток : 1795 Кбит/сек
Программа кодирования : VirtualDubMod 1.5.10.3 | www.virtualdub-fr.org || (build 2550/release)
Библиотека кодирования : VirtualDubMod build 2550/release

Видео
Идентификатор : 0
Формат : MPEG-4 Visual
Профиль формата : Advanced Simple@L5
Параметр BVOP формата : 1
Параметр QPel формата : Нет
Параметр GMC формата : Без точки перехода
Параметр матрицы формата : Выборочная
Идентификатор кодека : XVID
Идентификатор кодека/Подсказка : XviD
Продолжительность : 1 ч. 26 м.
Битрейт : 1593 Кбит/сек
Ширина : 704 пикселя
Высота : 528 пикселей
Соотношение сторон : 4:3
Частота кадров : 25,000 кадров/сек
Цветовое пространство : YUV
Субдискретизация насыщенности : 4:2:0
Битовая глубина : 8 бит
Тип развёртки : Прогрессивная
Метод сжатия : С потерями
Бит/(Пиксели*Кадры) : 0.171
Размер потока : 990 Мбайт (89%)
Библиотека кодирования : XviD 73

Аудио
Идентификатор : 1
Формат : AC-3
Формат/Информация : Audio Coding 3
Расширение режима : CM (complete main)
Параметр Endianness формата : Big
Идентификатор кодека : 2000
Продолжительность : 1 ч. 26 м.
Вид битрейта : Постоянный
Битрейт : 192 Кбит/сек
Каналы : 2 канала
Расположение каналов : Front: L R
Частота : 48,0 КГц
Частота кадров : 31,250 кадров/сек (1536 spf)
Битовая глубина : 16 бит
Метод сжатия : С потерями
Размер потока : 119 Мбайт (11%)
Выравнивание : Разделение по промежуткам
Продолжительность промежутка : 40 мс. (1,00 видеокадр)
Время предзагрузки промежутка : 500 мс
pb.wtf



Скачать Рожденные бурей через торрент http://s019.radikal.ru/i636/1702/77/461170bd931a.png Скачать фильм Рожденные бурей через торрент бесплантно в хорошем качестве Описание:По одноименному роману Николая Островского.Осень 1918 года. Немецкие войска покидают маленький городок, расположенный на границе ... 5 10 1
Info! Золотая раздача, скачанное не засчитывается.
Торрент: Зарегистрирован [2017-02-20 09:19] · скачан: 5 раз
Статус: √ проверено
Размер: 1.09 GB
Как cкачать? Как скачать Рожденные бурей через торрент | UTorrent

% Раздел Тема Автор DL S | L
Кино СССР [ 748 MB ] Рожденные бурей [1957 СССР история DVDRip от AVP Studio] AVP Studio Скачать
1 | 0
Кино СССР [ 1.09 GB ] Рожденные бурей [1957 СССР история DVDRip-AVC от AVP Studio] AVP Studio Скачать
1 | 0

28-11-2019 20:33  

Отключить всю рекламу на сайте

    Дорогой пользователь! Огромная просьба, поблагодарите релизера, оцените раздачу и оставьте свои комментарий, если Вы скачали Рожденные бурей через торрент бесплатно! Внесите свою лепту в развитие PiratBit!
    Комментировать посты могут только пользователи прошедшие не сложную регистрацию
    Показать сообщения:    

    Рожденные бурей через торрент
    Скачать бесплатно Рожденные бурей
    Рожденные бурей скачать торрент
    Рожденные бурей смотреть онлайн
    Cкачать фильм Рожденные бурей бесплатно
    Рожденные бурей скачать торрент в хорошем качестве
    Рожденные бурей смотреть онлайн бесплатно в хорошем качестве


    Вы не можете начинать темы
    Вы не можете отвечать на сообщения
    Вы не можете редактировать свои сообщения
    Вы не можете удалять свои сообщения
    Вы не можете голосовать в опросах
    Вы не можете прикреплять файлы к сообщениям
    Вы можете скачивать файлы