новый адрес
Ссылка на приватное зеркало всего за 1$. Внимание количество ограничено!!!

iTunes

1+1

iTunes

мы

iTunes

1

iTunes

Чернобыль

iTunes

Ральф против интернета

Лицензия

ПШазам

Лицензия

Оно 2

Лицензия

30
pack

Вам бонус

ВАЖНО

!!Акция!!

Alien_RageХит недели

RePack

Resident Evil 21

ИГРА 18+

pack

RePack

jed

!!Акция!!

Alien_Rage

RePack

fifa19

RePack

Assassins Creed: Odyssey

RePack

NEED FOR SPEED™ PAYBACK

3 сезон

9 сезон

Бесстыжие 9 сезон

Все сериалы

все сериалы на PB.wtf

RePack

FAR CRY 5
Ребята, катастрофически не хватает 1900р. для оплаты серверов за Октябрь (всвязи с блокировками трафик упал в 3 раза), 1-2р., выручайте.
  

Рожденные бурей (Яков Базелян, Артур Войтецкий) [1957, СССР, история, DVDRip от AVP Studio] pb.wtf

Рожденные бурей через торрент pb.wtf

Размер: 748 MB | Добавлен: 2 года 9 мес. назад | Торрент скачан:8 раз
Скачать  

20-02-2017 09:20 Рожденные бурей Скачать торрент  

Рожденные бурей
Страна: СССР
Производство: К/ст им. Довженко

Жанр: история
Год выпуска: 1957
Продолжительность: 01:26:51

Перевод: Не требуется
Cубтитры: нет
Оригинальная аудиодорожка: русский

Режиссер: Яков Базелян, Артур Войтецкий

В ролях:
Сергей Гурзо (старший), Ольга Бган, Анатолий Иванов (VIII), Вова Силуянов, Олег Жаков, Ада Войцик, Николай Хрящиков, Александр Гречаный, Юрий Мажуга, Александр Толстых, Павел Шпрингфельд, Константин Кульчицкий, А. Теремец, Юрий Леонидов, Валентина Ушакова, Дзидра Ритенберга, Чеслав Сушкевич, Николай Рушковский, Георгий (Юрий) Козаковский, Д. Агибалов...
Об актёрах подробней

Описание:
По одноименному роману Николая Островского.
Осень 1918 года. Немецкие войска покидают маленький городок, расположенный на границе Западной Украины и Польши. Влacть в городе захватывают пилсудчики. Вернувшийся из тюрьмы большевик Сигизмунд Раевский (Олег Жаков) возглавляет подпольный ревком. На заводах, фабриках, в железнодорожных мастерских создаются рабочие дружины. Все ждут только сигнала к восстанию. В борьбе с польскими легионерами принимают участие первые комсомольцы городка. Среди них Раймонд, сын Раевского, и девушка Олеся. С Олесей дружит рабочий паренёк Андрей Птаха (Сергей Гурзо-старший). Ревность к Раймонду, которого любит Олеся, горькое чувство неразделённой любви Андрей пытается заглушить вином, бесшабашной гульбой. Но вот на глазах у Птахи поляки убивают его старшего друга, дядю Тараса. Охваченный гневом Андрей забирается в котельную завода и включает гудок, намертво закрепив его ручку. Это служит сигналом к восстанию. Под натиском рабочих дружин бегут легионеры. Андрей, укрывшийся в котельной, успешно обороняется от врагов. Поляки обращаются за помощью к отступающим немецким войскам. Совместно им удается подавить восстание. Отряд молодёжи берет в качестве заложниц сестёр графа Могельницкого - главаря польских легионеров, с тем чтобы обменять их на руководителей восстания. Легионеры окружают домик, где расположился отряд. Но комсомольцам удается прорвать кольцо окружения и соединиться с наступающими частями Красной Армии.

Источник: DVD5 R5
Качество видео: DVDRip
Формат видео: AVI

Видео: 640x480 (4:3), 25 fps, XviD ~ 1067 kbps avg, 0.139 bit/pixel
Аудио: 48 kHz, MP3 2.0, 128 kbps

Раздача от:
Общее
Полное имя : Rozhdennye.burey.1957.DVDRip-745_[New-team]_by_AVP_Studio.avi
Формат : AVI
Формат/Информация : Audio Video Interleave
Размер файла : 748 Мбайт
Продолжительность : 1 ч. 26 м.
Общий поток : 1204 Кбит/сек
Программа кодирования : VirtualDubMod 1.5.10.3 | www.virtualdub-fr.org || (build 2550/release)
Библиотека кодирования : VirtualDubMod build 2550/release

Видео
Идентификатор : 0
Формат : MPEG-4 Visual
Профиль формата : Advanced Simple@L5
Параметр BVOP формата : 1
Параметр QPel формата : Нет
Параметр GMC формата : Без точки перехода
Параметр матрицы формата : Выборочная
Идентификатор кодека : XVID
Идентификатор кодека/Подсказка : XviD
Продолжительность : 1 ч. 26 м.
Битрейт : 1067 Кбит/сек
Ширина : 640 пикселей
Высота : 480 пикселей
Соотношение сторон : 4:3
Частота кадров : 25,000 кадров/сек
Цветовое пространство : YUV
Субдискретизация насыщенности : 4:2:0
Битовая глубина : 8 бит
Тип развёртки : Прогрессивная
Метод сжатия : С потерями
Бит/(Пиксели*Кадры) : 0.139
Размер потока : 663 Мбайт (89%)
Библиотека кодирования : XviD 73

Аудио
Идентификатор : 1
Формат : MPEG Audio
Версия формата : Version 1
Профиль формата : Layer 3
Идентификатор кодека : 55
Идентификатор кодека/Подсказка : MP3
Продолжительность : 1 ч. 26 м.
Вид битрейта : Постоянный
Битрейт : 128 Кбит/сек
Каналы : 2 канала
Частота : 48,0 КГц
Метод сжатия : С потерями
Размер потока : 79,5 Мбайт (11%)
Выравнивание : Соединение по промежуткам
Продолжительность промежутка : 40 мс. (1,00 видеокадр)
Время предзагрузки промежутка : 504 мс.
Библиотека кодирования : LAME3.99r
Настройки программы : -m s -V 4 -q 2 -lowpass 17 -b 128
pb.wtf



Скачать Рожденные бурей через торрент http://s019.radikal.ru/i636/1702/77/461170bd931a.png Скачать фильм Рожденные бурей через торрент бесплантно в хорошем качестве Описание:По одноименному роману Николая Островского.Осень 1918 года. Немецкие войска покидают маленький городок, расположенный на границе ... 5 10 1
Info! Золотая раздача, скачанное не засчитывается.
Торрент: Зарегистрирован [2017-02-20 09:20] · скачан: 8 раз
Статус: √ проверено
Размер: 748 MB
Как cкачать? Как скачать Рожденные бурей через торрент | qTorrent

% Раздел Тема Автор DL S | L
Кино СССР [ 1.09 GB ] Рожденные бурей [1957 СССР история DVDRip-AVC от AVP Studio] AVP Studio Скачать
1 | 0
Кино СССР [ 1.09 GB ] Рожденные бурей [1957 СССР история DVDRip от AVP Studio] AVP Studio Скачать
1 | 0


>> Переходим по ссылке <<
Автоматически подгузится скрипт который настроит ваш браузер на выигрыш!!
После настройки браузера вероятность выигрыша увеличется в 4.1-4,6 раза.
В течение 6 секунд вам откроется настроенный интерфейс казино, с повышенной вероятностью выигрыша.






Отзывы и комментарии о схеме читаем и пишем здесь: ---> Отзывы и комментарии о схеме

Новые благодарочки в телеграм довольных пользователей:
скриншот   скриншот   скриншот   скриншот   скриншот

20-02-2017 14:03 Рожденные бурей Скачать торрент  

прочитал описание будто посмотрел спасибо автору pb.wtf



    Дорогой пользователь! Огромная просьба, поблагодарите релизера, оцените раздачу и оставьте свои комментарий, если Вы скачали Рожденные бурей через торрент бесплатно! Внесите свою лепту в развитие PiratBit!
    Комментировать посты могут только пользователи прошедшие не сложную регистрацию
    Показать сообщения:    

    Рожденные бурей через торрент
    Скачать бесплатно Рожденные бурей
    Рожденные бурей скачать торрент
    Рожденные бурей смотреть онлайн
    Cкачать фильм Рожденные бурей бесплатно
    Рожденные бурей скачать торрент в хорошем качестве
    Рожденные бурей смотреть онлайн бесплатно в хорошем качестве


    Вы не можете начинать темы
    Вы не можете отвечать на сообщения
    Вы не можете редактировать свои сообщения
    Вы не можете удалять свои сообщения
    Вы не можете голосовать в опросах
    Вы не можете прикреплять файлы к сообщениям
    Вы можете скачивать файлы