Ребята, если до конца года каждый наш пользователь пожертвует хотя бы 10 рублей, нам хватит денег оплатить все наши расходы.

iTunes

Хэллоуин

iTunes

venom

iTunes

Вы умрете, или мы вернем вам деньги

iTunes

iTunes

Тайна дома с часами

iTunes

Ничего хорошего в отеле «Эль рояль»

1080p

Хит недели

Лицензия

Агент Джонни Инглиш 3.0

ИГРА 18+

pack

RePack

Battlefield V

RePack

Assassins Creed: Odyssey
pack

Проголосуй

Лучший релизер 2018

RePack

Darksiders 3

iTunes 4K

venom Хит недели

RePack

fifa19

!!Акция!!

Alien_RageХит недели

RePack

NEED FOR SPEED™ PAYBACK

SATRip

9 сезон

Бесстыжие 9 сезон

Все сериалы

все сериалы на PB.wtf

iTunes

Мэнди

RePack

FAR CRY 5
  

Моана / Moana (Рон Клементс, Дон Холл, Джон Маскер) [2016, мультфильм, мюзикл, фэнтези, BDRip-AVC от R.G.Resident] Дубляж - [Лицензия / iTunes]

Моана через торрент

Раздают: 6 [ 0 KB/s ]
Размер: 2.8 GB | Добавлен: 1 год 10 мес. назад | Торрент скачан:1695 раз
Скачать  

20-02-2017 15:14 Моана Скачать торрент  

Моана / Moana
««The ocean is calling»»

Год выпуска: 2016
Страна: США
Жанр: мультфильм, мюзикл, фэнтези, комедия, приключения, семейный
Продолжительность: 01:47:43
Перевод: Дубляж - [Лицензия / iTunes]
Субтитры: русские (Full), английские (Full), английские (SDH)
Режиссер: Рон Клементс, Дон Холл, Джон Маскер
В ролях:

Аулии Кравалхо (Moana, озвучка), Дуэйн Джонсон (Maui, озвучка), Рэйчел Хаус (Gramma Tala, озвучка), Темуэра Моррисон (Chief Tui, озвучка), Джемейн Клемент (Tamatoa, озвучка), Николь Шерзингер (Sina, озвучка), Алан Тьюдик (Heihei / Villager #3, озвучка), Оскар Кайтли (Fisherman, озвучка), Трой Поламалу (Villager #1, озвучка), Пуанани Кравальо (Villager #2, озвучка), Луиз Буш (Toddler Moana, озвучка)
Описание:
Бесстрашная Моана, дочь вождя маленького племени на острове в Тихом океане, больше всего на свете мечтает о приключениях и решает отправиться в опасное морское путешествие. Вместе с некогда могущественным полубогом Мауи им предстоит пересечь океан, сразиться со страшными чудовищами и разрушить древнее заклятие.
Мировая премьера: 14 ноября 2016

MPAA: PG - Рекомендуется присутствие родителей
Качество: BDRip-AVC Rip by
Формат: MKV
Видео: AVC, 1024x428 (2.40:1), 2897 kbps, 23,976 fps, 0,276 bpp
Аудио №1: русский / AC3 / 5.1 / 48 kHz / 384 kbps /
Аудио №2: английский / AC3 / 5.1 / 48 kHz / 448 kbps /
General
Unique ID : 201074067022106230393040241166930729257 (0x974574E870C25F798023E9162284D929)
Complete name : D:\download\Moana.2016.BDRip-AVC by schultz R.G.Resident.mkv
Format : Matroska
Format version : Version 4 / Version 2
File size : 2.80 GiB
Duration : 1 h 47 min
Overall bit rate : 3 715 kb/s
Encoded date : UTC 2017-02-20 14:35:17
Writing application : mkvmerge v8.9.0 ('Father Daughter') 64bit
Writing library : libebml v1.3.3 + libmatroska v1.4.4

Video
ID : 1
Format : AVC
Format/Info : Advanced Video Codec
Format profile : High@L4.1
Format settings, CABAC : Yes
Format settings, ReFrames : 12 frames
Codec ID : V_MPEG4/ISO/AVC
Duration : 1 h 47 min
Bit rate : 2 897 kb/s
Width : 1 024 pixels
Height : 428 pixels
Display aspect ratio : 2.40:1
Frame rate mode : Constant
Frame rate : 23.976 (23976/1000) FPS
Color space : YUV
Chroma subsampling : 4:2:0
Bit depth : 8 bits
Scan type : Progressive
Bits/(Pixel*Frame) : 0.276
Stream size : 2.17 GiB (78%)
Writing library : x264 core 146 r2538 121396c
Encoding settings : cabac=1 / ref=12 / deblock=1:-3:-3 / analyse=0x3:0x113 / me=umh / subme=11 / psy=1 / psy_rd=1.00:0.00 / mixed_ref=1 / me_range=48 / chroma_me=1 / trellis=2 / 8x8dct=1 / cqm=0 / deadzone=21,11 / fast_pskip=0 / chroma_qp_offset=-2 / threads=12 / lookahead_threads=3 / sliced_threads=0 / nr=0 / decimate=0 / interlaced=0 / bluray_compat=0 / constrained_intra=0 / bframes=11 / b_pyramid=2 / b_adapt=2 / b_bias=0 / direct=3 / weightb=1 / open_gop=0 / weightp=2 / keyint=240 / keyint_min=23 / scenecut=40 / intra_refresh=0 / rc_lookahead=40 / rc=2pass / mbtree=1 / bitrate=2897 / ratetol=1.0 / qcomp=0.60 / qpmin=0 / qpmax=69 / qpstep=4 / cplxblur=20.0 / qblur=0.5 / vbv_maxrate=50000 / vbv_bufsize=62500 / nal_hrd=none / filler=0 / ip_ratio=1.40 / aq=1:1.00
Language : English
Default : Yes
Forced : No

Audio #1
ID : 2
Format : AC-3
Format/Info : Audio Coding 3
Mode extension : CM (complete main)
Format settings, Endianness : Big
Codec ID : A_AC3
Duration : 1 h 47 min
Bit rate mode : Constant
Bit rate : 384 kb/s
Channel(s) : 6 channels
Channel positions : Front: L C R, Side: L R, LFE
Sampling rate : 48.0 kHz
Frame rate : 31.250 FPS (1536 spf)
Compression mode : Lossy
Stream size : 296 MiB (10%)
Language : Russian
Default : Yes
Forced : No

Audio #2
ID : 3
Format : AC-3
Format/Info : Audio Coding 3
Mode extension : CM (complete main)
Format settings, Endianness : Big
Codec ID : A_AC3
Duration : 1 h 47 min
Bit rate mode : Constant
Bit rate : 448 kb/s
Channel(s) : 6 channels
Channel positions : Front: L C R, Side: L R, LFE
Sampling rate : 48.0 kHz
Frame rate : 31.250 FPS (1536 spf)
Compression mode : Lossy
Stream size : 344 MiB (12%)
Language : English
Default : No
Forced : No

Text #1
ID : 4
Format : UTF-8
Codec ID : S_TEXT/UTF8
Codec ID/Info : UTF-8 Plain Text
Duration : 1 h 45 min
Bit rate : 70 b/s
Count of elements : 1236
Stream size : 54.3 KiB (0%)
Title : Full
Language : Russian
Default : No
Forced : No

Text #2
ID : 5
Format : UTF-8
Codec ID : S_TEXT/UTF8
Codec ID/Info : UTF-8 Plain Text
Duration : 1 h 45 min
Bit rate : 44 b/s
Count of elements : 1246
Stream size : 34.7 KiB (0%)
Title : Full
Language : English
Default : No
Forced : No

Text #3
ID : 6
Format : UTF-8
Codec ID : S_TEXT/UTF8
Codec ID/Info : UTF-8 Plain Text
Duration : 1 h 45 min
Bit rate : 47 b/s
Count of elements : 1346
Stream size : 36.6 KiB (0%)
Title : SDH
Language : English
Default : No
Forced : No

Menu
00:00:00.000 : en:00:00:00.000
00:07:15.685 : en:00:07:15.685
00:11:59.802 : en:00:11:59.802
00:16:13.764 : en:00:16:13.764
00:21:29.580 : en:00:21:29.580
00:28:02.806 : en:00:28:02.806
00:32:11.346 : en:00:32:11.346
00:35:16.281 : en:00:35:16.281
00:41:36.869 : en:00:41:36.869
00:45:04.869 : en:00:45:04.869
00:49:10.322 : en:00:49:10.322
00:53:21.031 : en:00:53:21.031
00:57:33.325 : en:00:57:33.325
01:05:45.024 : en:01:05:45.024
01:10:46.075 : en:01:10:46.075
01:12:52.118 : en:01:12:52.118
01:15:41.954 : en:01:15:41.954
01:23:17.075 : en:01:23:17.075
01:29:50.927 : en:01:29:50.927
01:36:13.726 : en:01:36:13.726




Скачать Моана через торрент http://i77.fastpic.ru/big/2016/0417/a7/808a646271c761f7c7d87df3d366b3a7.png Скачать фильм Моана через торрент бесплантно в хорошем качестве Описание: Бесстрашная Моана, дочь вождя маленького племени на острове в Тихом океане, больше всего на свете мечтает о приключениях и решает ... 9.9 10 34
Info! Золотая раздача, скачанное не засчитывается.
Торрент: Зарегистрирован [2017-02-20 15:14] · скачан: 1 695 раз
Статус: √ проверено
Размер: 2.8 GB
Как cкачать? Как скачать Моана через торрент | qTorrent

% Раздел Тема Автор DL S | L
Фильмы до 2000 г. [ 2.05 GB ] Враг мой / Enemy Mine [1985 HDTVRip DUB + MVO + Оригинал + AVO )] bogyn Скачать
2 | 0
T Фильмы (мультфильмы) cо спонсором показа (Новинки AVI/MKV) [ 2.93 GB ] Мамочка будь моей / Mommy Be Mine [2018 WEBRip 720p] MVO ["Синема УС"] bober100 Скачать
1 | 0
T Фильмы (мультфильмы) cо спонсором показа (Новинки AVI/MKV) [ 1.37 GB ] Мамочка будь моей / Mommy Be Mine [2018 WEBRip] MVO ["Синема УС"] bober100 Скачать
1 | 0
Гонзо [ 1.96 GB ] Грудастый Друг Моей Подруги 23 / My Girlfriend's Busty Friend 23 [2018 All Sex Oral Gonzo Facial Couples Big Boobs WEB-DL 480p] Split Scenes sheker187 Скачать
2 | 0
Порно фильмы с сюжетом [ 1.24 GB ] Запретные Романы 8: Муж Моей Лучшей Подруги / Forbidden Affairs 8: My Best Friend's Husband [2018 Feature Wives WEB-DL 480p] Split Scenes sheker187 Скачать
2 | 0
Порно фильмы без сюжета [ 2.25 GB ] Наблюдая За Моей Горячей Женой 3 / Watching My Hotwife 3 [2018 Affairs & Love Triangles All Sex Facial Hotwife WEB-DL 480p] Split Scenes sheker187 Скачать
1 | 1
Порно фильмы DVD [ 466 MB ] Писайте в Мою Дырку / Piss in Mein Loch! [2009 Peeing All sex Hardcore Extreme] DEVI Скачать
1 | 0


>> Регистрируемся здесь <<






Отзывы и комментарии о схеме читаем и пишем здесь: ---> Отзывы и комментарии о схеме

Новые благодарочки в телеграм довольных пользователей:
скриншот   скриншот   скриншот   скриншот   скриншот

27-03-2017 21:32 Моана Скачать торрент  

Мульт просто потрясающий , добрый и веселый .



29-12-2018 19:42 Моана Скачать торрент  

Согласен. Хороший мультфильм. Смотрится легко.



    Дорогой пользователь! Огромная просьба, поблагодарите релизера, оцените раздачу и оставьте свои комментарий, если Вы скачали Моана через торрент бесплатно! Внесите свою лепту в развитие PiratBit!
    Комментировать посты могут только пользователи прошедшие не сложную регистрацию
    Показать сообщения:    

    Моана через торрент
    Скачать бесплатно Моана
    Моана скачать торрент
    Моана смотреть онлайн
    Cкачать фильм Моана бесплатно
    Моана скачать торрент в хорошем качестве
    Моана смотреть онлайн бесплатно в хорошем качестве


    Вы не можете начинать темы
    Вы не можете отвечать на сообщения
    Вы не можете редактировать свои сообщения
    Вы не можете удалять свои сообщения
    Вы не можете голосовать в опросах
    Вы не можете прикреплять файлы к сообщениям
    Вы можете скачивать файлы