Ссылка на приватное зеркало нашего сайта всего за 1$. Внимание количество ограничено!!!

2 сезон

iTunes

1 сезон

1

iTunes

iTunes

iTunes

1 сезон

RePack

30

ИГРА 18+

pack

ВАЖНО

!!Акция!!

Alien_RageХит недели

RePack

MK11
pack

Забери бонус

RePack

jed

!!Акция!!

Alien_Rage

RePack

fifa19

RePack

Assassins Creed: Odyssey

RePack

NEED FOR SPEED™ PAYBACK

4 сезон

9 сезон

Бесстыжие 9 сезон

Все сериалы

все сериалы на PB.wtf

RePack

FAR CRY 5
  

Американская пастораль / American Pastoral (Юэн МакГрегор) [2016, драма, криминал, BDRip 1080p от ExKinoRay / iTunes] pb.wtf

Американская пастораль через торрент pb.wtf

Размер: 14.59 GB | Добавлен: 3 года 8 мес. назад | Торрент скачан:112 раз
Скачать  

20-02-2017 15:33 Американская пастораль Скачать торрент  

Информация о фильме

Название: Американская пастораль

Оригинальное название: American Pastoral

Год выхода: 2016

Страна: США, Гонконг

Студия: Lakeshore Entertainment

Продолжительность: 01:48:17

Перевод: Дублированный | iTunes

Жанр: Драма, криминал

Режиссер: Эван МакГрегор

В ролях: Эван МакГрегор, Дженнифер Коннелли, Дакота Фэннинг, Питер Ригерт, Руперт Эванс, Узо Адуба, Молли Паркер, Вэлори Керри, Ханна Нордберг, Джулия Силверман

О фильме:

Есть люди с рождения "запрограммированные" на пожизненный успех и удачу. Именно к таким счастливчикам и был причислен Сеймур Левов, прозванный "Шведом" за светлые волосы и голубые глаза. Он был школьной спортивной звездой и всеобщим любимцем, в его безоблачном будущем никто и никогда не сомневался. Вернувшись с войны, бравый морской пехотинец женился на бывшей мисс Нью-Джерси, родившей ему очаровательную белокурую дочурку Мередит. Он унаследовал процветающий бизнес и обзавелся прекрасным загородным домом. Его жизнь была настоящим воплощением американской мечты. Но благополучные и безмятежные 50-е годы сменились мрачными и беспокойными 60-ми. Предвестником приближающейся беды стало фанатичное увлечение повзрослевшей дочери радикальными революционными идеями. Вскоре, начавший давать трещины идеальный мир Сеймура был окончательно разрушен взрывом динамита, подброшенного кем-то в здание местной почты. По мнению ФБР, взрыв – дело рук, примкнувшей к террористам, Мередит...

rating

Файл

Качество: BDRip 1080p

Видео: MPEG-4 AVC, 1920x810, 17.4 Mbit/s, 23.976 fps

Звук:

Аудио #01: 48 kHz, AC3, 5.1, 384 Kbps | Дублированный | iTunes |

Аудио #02: 48 kHz, DTS, 5.1, 1510 kbps | Оригинал |

Субтитры: Английские
General

Unique ID : 187993152280487460872124955347991673513 (0x8D6E2A04888C3ABC93AF31F354F43AA9)

Complete name : G:VideoAmerican.Pastoral.2016.BDRip.1080p.ExKinoRay.mkv

Format : Matroska

Format version : Version 4 / Version 2

File size : 14.6 GiB

Duration : 1 h 48 min

Overall bit rate : 19.3 Mb/s

Encoded date : UTC 2017-02-19 23:53:39

Writing application : mkvmerge v8.3.0 ('Over the Horizon') 64bit

Writing library : libebml v1.3.1 + libmatroska v1.4.2

Video

ID : 1

Format : AVC

Format/Info : Advanced Video Codec

Format profile : High@L4.1

Format settings, CABAC : Yes

Format settings, ReFrames : 4 frames

Codec ID : V_MPEG4/ISO/AVC

Duration : 1 h 48 min

Bit rate : 17.4 Mb/s

Width : 1 920 pixels

Height : 810 pixels

Display aspect ratio : 2.40:1

Frame rate mode : Constant

Frame rate : 23.976 (24000/1001) FPS

Color space : YUV

Chroma subsampling : 4:2:0

Bit depth : 8 bits

Scan type : Progressive

Bits/(Pixel*Frame) : 0.467

Stream size : 13.2 GiB (90%)

Writing library : x264 core 148 r2744 b97ae06

Encoding settings : cabac=1 / ref=4 / deblock=1:-3:-3 / analyse=0x3:0x133 / me=tesa / subme=11 / psy=1 / psy_rd=1.00:0.00 / mixed_ref=1 / me_range=32 / chroma_me=1 / trellis=2 / 8x8dct=1 / cqm=0 / deadzone=21,11 / fast_pskip=0 / chroma_qp_offset=-2 / threads=25 / lookahead_threads=6 / sliced_threads=0 / nr=0 / decimate=0 / interlaced=0 / bluray_compat=0 / constrained_intra=0 / bframes=11 / b_pyramid=2 / b_adapt=2 / b_bias=0 / direct=3 / weightb=1 / open_gop=0 / weightp=2 / keyint=240 / keyint_min=23 / scenecut=40 / intra_refresh=0 / rc_lookahead=150 / rc=crf / mbtree=0 / crf=15.9 / qcomp=0.60 / qpmin=0 / qpmax=69 / qpstep=4 / vbv_maxrate=62500 / vbv_bufsize=78125 / crf_max=0.0 / nal_hrd=none / filler=0 / ip_ratio=1.40 / pb_ratio=1.30 / aq=1:0.80 / zones=147256,155510,b=0.2

Language : English

Default : Yes

Forced : No

Color range : Limited

Matrix coefficients : BT.709

Audio #1

ID : 2

Format : AC-3

Format/Info : Audio Coding 3

Mode extension : CM (complete main)

Format settings, Endianness : Big

Codec ID : A_AC3

Duration : 1 h 48 min

Bit rate mode : Constant

Bit rate : 384 kb/s

Channel(s) : 6 channels

Channel positions : Front: L C R, Side: L R, LFE

Sampling rate : 48.0 kHz

Frame rate : 31.250 FPS (1536 spf)

Bit depth : 16 bits

Compression mode : Lossy

Stream size : 297 MiB (2%)

Title : iTunes

Language : Russian

Default : Yes

Forced : No

Audio #2

ID : 3

Format : DTS

Format/Info : Digital Theater Systems

Mode : 16

Format settings, Endianness : Big

Codec ID : A_DTS

Duration : 1 h 48 min

Bit rate mode : Constant

Bit rate : 1 509 kb/s

Channel(s) : 6 channels

Channel positions : Front: L C R, Side: L R, LFE

Sampling rate : 48.0 kHz

Frame rate : 93.750 FPS (512 spf)

Bit depth : 24 bits

Compression mode : Lossy

Stream size : 1.14 GiB (8%)

Title : Original

Language : English

Default : No

Forced : No

Text #1

ID : 4

Format : UTF-8

Codec ID : S_TEXT/UTF8

Codec ID/Info : UTF-8 Plain Text

Duration : 1 h 42 min

Bit rate : 63 b/s

Count of elements : 1374

Stream size : 47.8 KiB (0%)

Title : Full

Language : English

Default : No

Forced : No

Text #2

ID : 5

Format : UTF-8

Codec ID : S_TEXT/UTF8

Codec ID/Info : UTF-8 Plain Text

Duration : 1 h 42 min

Bit rate : 67 b/s

Count of elements : 1428

Stream size : 50.2 KiB (0%)

Title : SDH

Language : English

Default : No

Forced : No

Menu

00:00:00.000 : en:Chapter 1

00:07:29.157 : en:Chapter 2

00:11:13.923 : en:Chapter 3

00:19:19.408 : en:Chapter 4

00:25:58.932 : en:Chapter 5

00:32:15.600 : en:Chapter 6

00:38:52.163 : en:Chapter 7

00:45:41.989 : en:Chapter 8

00:52:51.210 : en:Chapter 9

00:58:04.731 : en:Chapter 10

01:05:01.064 : en:Chapter 11

01:12:01.442 : en:Chapter 12

01:17:35.192 : en:Chapter 13

01:25:41.011 : en:Chapter 14

01:32:38.970 : en:Chapter 15

01:39:02.603 : en:Chapter 16


Релиз от: Автор релиза: pb.wtf



Скачать Американская пастораль через торрент http://s56.radikal.ru/i154/1702/82/f584e0d7c4fe.jpg Скачать фильм Американская пастораль через торрент бесплантно в хорошем качестве О фильме:Есть люди с рождения "запрограммированные" на пожизненный успех и удачу. Именно к таким счастливчикам и был причислен Сеймур ... 10 10 4
Info! Золотая раздача, скачанное не засчитывается.
Торрент: Зарегистрирован [2017-02-20 15:33] · скачан: 112 раз
Статус: √ проверено
Размер: 14.59 GB
Как cкачать? Как скачать Американская пастораль через торрент | qTorrent

% Раздел Тема Автор DL S | L
Фильмы 2016 [DVDrip, WEB-DLRip, HDrip] (DUB, MVO) [ 1.41 GB ] Американская пастораль / American Pastoral [2016 BDRip] - Twi7ter Скачать
1 | 0
Фильмы [HD 720p, 1080p] (Хороший звук DUB, MVO) [ 7.17 GB ] Американская пастораль / American Pastoral [2016 BDRip 720p от ExKinoRay / ] Ворон Скачать
1 | 0
Фильмы (Blu-ray, BD-Remux, HDDVD) [ 29.78 GB ] Американская пастораль / American Pastoral [2016 BDRemux 1080p от ExKinoRay / ] Ворон Скачать
1 | 0

28-11-2019 20:33  

Отключить всю рекламу на сайте

20-02-2017 20:04 Американская пастораль Скачать торрент  

как сериал кто смотрел отпишисьpb.wtf



21-02-2017 01:54 Американская пастораль Скачать торрент  

usup писал(а):

как сериал кто смотрел отпишись

какой сериал ?pb.wtf



    Дорогой пользователь! Огромная просьба, поблагодарите релизера, оцените раздачу и оставьте свои комментарий, если Вы скачали Американская пастораль через торрент бесплатно! Внесите свою лепту в развитие PiratBit!
    Комментировать посты могут только пользователи прошедшие не сложную регистрацию
    Показать сообщения:    

    Американская пастораль через торрент
    Скачать бесплатно Американская пастораль
    Американская пастораль скачать торрент
    Американская пастораль смотреть онлайн
    Cкачать фильм Американская пастораль бесплатно
    Американская пастораль скачать торрент в хорошем качестве
    Американская пастораль смотреть онлайн бесплатно в хорошем качестве


    Вы не можете начинать темы
    Вы не можете отвечать на сообщения
    Вы не можете редактировать свои сообщения
    Вы не можете удалять свои сообщения
    Вы не можете голосовать в опросах
    Вы не можете прикреплять файлы к сообщениям
    Вы можете скачивать файлы