Доктор Стрэндж

Лицензия

Добыча

Дубляж

Уэнсдэй

1 сезон

Тор

Дубляж

В эфире

Дубляж

Там, где раки поют

MVO

Властелин колец

1 сезон

Deluxe

pack

Рекомендуем

30

Пиратка

ВАЖНО

ВАЖНО

Ghostwire

Пиратка

jed

RePack

nioh2

RePack

RDR2

RePack

NEED FOR SPEED™ PAYBACK

RePack

скачать торрент

Кинопоиск HD

Острые козырьки 6 сезон

6 сезон

FAR CRY 6

RePack

скачать торрент

Лицензия

скачать торрент

MVO

1

1 сезон

скачать торрент

1 сезон

скачать торрент

Лицензия

  

Американская пастораль / American Pastoral (Юэн МакГрегор) [2016, драма, криминал, BDRemux 1080p от ExKinoRay / iTunes]

Американская пастораль через торрент pb.wtf

Размер: 29.78 GB | Добавлен: 5 лет 9 мес. назад | Торрент скачан:15 раз
Смотреть онлайн | Скачать   

20-02-2017 15:35 Американская пастораль Скачать торрент  

Название: Американская пастораль

Оригинальное название: American Pastoral

Год выхода: 2016

Страна: США, Гонконг

Студия: Lakeshore Entertainment

Продолжительность: 01:48:17

Перевод: Дублированный | iTunes

Жанр: Драма, криминал

Режиссер: Эван МакГрегор

В ролях: Эван МакГрегор, Дженнифер Коннелли, Дакота Фэннинг, Питер Ригерт, Руперт Эванс, Узо Адуба, Молли Паркер, Вэлори Керри, Ханна Нордберг, Джулия Силверман

Описание:

Есть люди с рождения "запрограммированные" на пожизненный успех и удачу. Именно к таким счастливчикам и был причислен Сеймур Левов, прозванный "Шведом" за светлые волосы и голубые глаза. Он был школьной спортивной звездой и всеобщим любимцем, в его безоблачном будущем никто и никогда не сомневался. Вернувшись с войны, бравый морской пехотинец женился на бывшей мисс Нью-Джерси, родившей ему очаровательную белокурую дочурку Мередит. Он унаследовал процветающий бизнес и обзавелся прекрасным загородным домом. Его жизнь была настоящим воплощением американской мечты. Но благополучные и безмятежные 50-е годы сменились мрачными и беспокойными 60-ми. Предвестником приближающейся беды стало фанатичное увлечение повзрослевшей дочери радикальными революционными идеями. Вскоре, начавший давать трещины идеальный мир Сеймура был окончательно разрушен взрывом динамита, подброшенного кем-то в здание местной почты. По мнению ФБР, взрыв – дело рук, примкнувшей к террористам, Мередит...

rating

Файл

Качество: BDRemux 1080p

Видео: MPEG-4 AVC, 1920x1080, 35.8 Mbit/s, 23.976 fps

Звук:

Аудио #01: 48 kHz, AC3, 5.1, 384 Kbps | Дублированный | iTunes |

Аудио #02: 48 kHz, DTS-HD MA, 5.1, 3136 kbps | Оригинал |

Субтитры: Английские
General

Unique ID : 223153401553905147751364727634048129813 (0xA7E1C825A5BB04959D25A2F840711B15)

Complete name : G:VideoAmerican.Pastoral.2016.BDREMUX.1080p.ExKinoRay.mkv

Format : Matroska

Format version : Version 4 / Version 2

File size : 29.8 GiB

Duration : 1 h 48 min

Overall bit rate mode : Variable

Overall bit rate : 39.4 Mb/s

Encoded date : UTC 2017-02-20 01:41:59

Writing application : mkvmerge v8.3.0 ('Over the Horizon') 64bit

Writing library : libebml v1.3.1 + libmatroska v1.4.2

Video

ID : 1

Format : AVC

Format/Info : Advanced Video Codec

Format profile : [email protected]

Format settings, CABAC : Yes

Format settings, ReFrames : 4 frames

Codec ID : V_MPEG4/ISO/AVC

Duration : 1 h 48 min

Bit rate mode : Variable

Bit rate : 35.8 Mb/s

Maximum bit rate : 38.0 Mb/s

Width : 1 920 pixels

Height : 1 080 pixels

Display aspect ratio : 16:9

Frame rate mode : Constant

Frame rate : 23.976 (24000/1001) FPS

Color space : YUV

Chroma subsampling : 4:2:0

Bit depth : 8 bits

Scan type : Progressive

Bits/(Pixel*Frame) : 0.721

Stream size : 27.1 GiB (91%)

Language : English

Default : Yes

Forced : No

Audio #1

ID : 2

Format : AC-3

Format/Info : Audio Coding 3

Mode extension : CM (complete main)

Format settings, Endianness : Big

Codec ID : A_AC3

Duration : 1 h 48 min

Bit rate mode : Constant

Bit rate : 384 kb/s

Channel(s) : 6 channels

Channel positions : Front: L C R, Side: L R, LFE

Sampling rate : 48.0 kHz

Frame rate : 31.250 FPS (1536 spf)

Bit depth : 16 bits

Compression mode : Lossy

Stream size : 297 MiB (1%)

Title : iTunes

Language : Russian

Default : Yes

Forced : No

Audio #2

ID : 3

Format : DTS

Format/Info : Digital Theater Systems

Format profile : MA / Core

Mode : 16

Format settings, Endianness : Big

Codec ID : A_DTS

Duration : 1 h 48 min

Bit rate mode : Variable / Constant

Bit rate : 3 136 kb/s / 1 509 kb/s

Channel(s) : 6 channels

Channel positions : Front: L C R, Side: L R, LFE

Sampling rate : 48.0 kHz

Frame rate : 93.750 FPS (512 spf)

Bit depth : 24 bits

Compression mode : Lossless / Lossy

Stream size : 2.37 GiB (8%)

Title : Original

Language : English

Default : No

Forced : No

Text #1

ID : 4

Format : UTF-8

Codec ID : S_TEXT/UTF8

Codec ID/Info : UTF-8 Plain Text

Duration : 1 h 42 min

Bit rate : 63 b/s

Count of elements : 1374

Stream size : 47.8 KiB (0%)

Title : Full

Language : English

Default : No

Forced : No

Text #2

ID : 5

Format : UTF-8

Codec ID : S_TEXT/UTF8

Codec ID/Info : UTF-8 Plain Text

Duration : 1 h 42 min

Bit rate : 67 b/s

Count of elements : 1428

Stream size : 50.2 KiB (0%)

Title : SDH

Language : English

Default : No

Forced : No

Menu

00:00:00.000 : en:Chapter 1

00:07:29.157 : en:Chapter 2

00:11:13.923 : en:Chapter 3

00:19:19.408 : en:Chapter 4

00:25:58.932 : en:Chapter 5

00:32:15.600 : en:Chapter 6

00:38:52.163 : en:Chapter 7

00:45:41.989 : en:Chapter 8

00:52:51.210 : en:Chapter 9

00:58:04.731 : en:Chapter 10

01:05:01.064 : en:Chapter 11

01:12:01.442 : en:Chapter 12

01:17:35.192 : en:Chapter 13

01:25:41.011 : en:Chapter 14

01:32:38.970 : en:Chapter 15

01:39:02.603 : en:Chapter 16


Релиз от: Автор релиза:



Скачать Американская пастораль через торрент http://s56.radikal.ru/i154/1702/82/f584e0d7c4fe.jpg Скачать, смотреть онлайн Американская пастораль бесплантно в хорошем качестве Описание:Есть люди с рождения "запрограммированные" на пожизненный успех и удачу. Именно к таким счастливчикам и был причислен Сеймур ... 10 10 2
Торрент: Зарегистрирован [2017-02-20 15:35] · скачан: 15 раз
Статус: √ проверено
Размер: 29.78 GB
Как cкачать? Как скачать Американская пастораль через торрент | UTorrent

% Раздел Тема Автор DL S | L
Фильмы 2016 [DVDrip, WEB-DLRip, HDrip] (DUB, MVO) [ 1.41 GB ] Американская пастораль / American Pastoral | Лицензия | BDRip Twi7ter Скачать
1 | 0
Фильмы [HD 720p, 1080p] (Хороший звук DUB, MVO) [ 14.59 GB ] Американская пастораль / American Pastoral | iTunes | 1080p от ExKinoRay / iTunes Ворон Скачать
1 | 0
Фильмы [HD 720p, 1080p] (Хороший звук DUB, MVO) [ 7.17 GB ] Американская пастораль / American Pastoral | iTunes | 720p от ExKinoRay / iTunes Ворон Скачать
1 | 0

28-11-2019 20:33  


Отключить вcю реклaмy на сайте, в т.ч. и в плеере онлайн просмотра!

    Дорогой пользователь! Огромная просьба, поблагодарите релизера, оцените раздачу и оставьте свои комментарий, если Вы скачали Американская пастораль через торрент бесплатно!!
    Комментировать посты могут только пользователи прошедшие не сложную регистрацию
    Показать сообщения:    


    Американская пастораль через торрент
    Скачать бесплатно Американская пастораль
    Американская пастораль скачать торрент
    Американская пастораль смотреть онлайн
    Cкачать фильм Американская пастораль бесплатно
    Американская пастораль скачать торрент в хорошем качестве
    Американская пастораль смотреть онлайн бесплатно в хорошем качестве
    Вы не можете начинать темы
    Вы не можете отвечать на сообщения
    Вы не можете редактировать свои сообщения
    Вы не можете удалять свои сообщения
    Вы не можете голосовать в опросах
    Вы не можете прикреплять файлы к сообщениям
    Вы можете скачивать файлы
    Американская пастораль / American Pastoral [2016, драма, криминал, BDRemux 1080p от ExKinoRay / iTunes] смотреть онлайн, скачать торрент picoco.icu