новый адрес
Ссылка на приватное зеркало всего за 1$. Внимание количество ограничено!!!

iTunes

1+1

iTunes

мы

iTunes

1

iTunes

Чернобыль

iTunes

Ральф против интернета

Лицензия

ПШазам

Лицензия

Оно 2

Лицензия

30
pack

Вам бонус

ВАЖНО

!!Акция!!

Alien_RageХит недели

RePack

Resident Evil 21

ИГРА 18+

pack

RePack

jed

!!Акция!!

Alien_Rage

RePack

fifa19

RePack

Assassins Creed: Odyssey

RePack

NEED FOR SPEED™ PAYBACK

3 сезон

9 сезон

Бесстыжие 9 сезон

Все сериалы

все сериалы на PB.wtf

RePack

FAR CRY 5
Ребята, катастрофически не хватает 1900р. для оплаты серверов за Октябрь (всвязи с блокировками трафик упал в 3 раза), 1-2р., выручайте.
  

Моана / Moana (Рон Клементс, Дон Холл, Джон Маскер) [2016 г., Фентези, Приключения, Комедия, BDRip 1080p, Дубляж Лицензия / iTunes] pb.wtf

Моана через торрент pb.wtf

Раздают: 1 [ 0 KB/s ]
Размер: 8.45 GB | Добавлен: 2 года 9 мес. назад | Торрент скачан:2143 раза
Скачать  

20-02-2017 16:12 Моана Скачать торрент  

Моана / Moana
««The ocean is calling»»
Год выпуска: 2016
Страна: США
Жанр: Фентези, Приключения, Комедия
Продолжительность: 01:47:12
Перевод: Дубляж Лицензия / iTunes
Субтитры: русские, английские (полные)

Режиссер: Рон Клементс, Дон Холл, Джон Маскер

Премьера в мире: 14 ноября 2016

rating

В ролях: Аулии Кравалхо, Дуэйн Джонсон, Рэйчел Хаус, Темуэра Моррисон, Джемейн Клемент, Николь Шерзингер, Алан Тьюдик, Оскар Кайтли, Трой Поламалу, Пуанани Кравальо

Описание: Бесстрашная Моана, дочь вождя маленького племени на острове в Тихом океане, больше всего на свете мечтает о приключениях и решает отправиться в опасное морское путешествие. Вместе с некогда могущественным полубогом Мауи им предстоит пересечь океан, сразиться со страшными чудовищами и разрушить древнее заклятие.

Качество: BDRip 1080p
Формат: MKV
Видео кодек: MPEG4
Аудио кодек: AC3
Видео: AVC/H.264, 1920x804,23.976fps,~9100 kbps,0.246bpp
Аудио#1: AC3, 6 ch, 384 kbps,48.0 KHz - русский
Аудио#2: DTS, 6 ch, 1509 kbps,48.0 KHz - английский








Format : AVC
Format/Info : Advanced Video Codec
Format profile : High@L4.1
Format settings, CABAC : Yes
Format settings, ReFrames : 4 frames
Codec ID : V_MPEG4/ISO/AVC
Duration : 1 h 47 min
Bit rate : 9 119 kb/s
Width : 1 920 pixels
Height : 804 pixels
Display aspect ratio : 2.40:1
Frame rate mode : Constant
Frame rate : 23.976
Color space : YUV
Chroma subsampling : 4:2:0
Bit depth : 8 bits
Scan type : Progressive
Bits/(Pixel*Frame) : 0.246
Stream size : 6.86 GiB (81%)
Writing library : x264 core 142 r2431+42 c69a006 tMod [8-bit@4:2:0 X86_64]
Encoding settings : cabac=1 / ref=4 / deblock=1:-3:-3 / analyse=0x3:0x113 / me=umh / subme=11 / psy=1 / fade_compensate=0.00 / psy_rd=1.00:0.05 / mixed_ref=1 / me_range=48 / chroma_me=1 / trellis=2 / 8x8dct=1 / cqm=0 / deadzone=21,11 / fast_pskip=0 / chroma_qp_offset=-2 / threads=12 / lookahead_threads=2 / sliced_threads=0 / nr=0 / decimate=1 / interlaced=0 / bluray_compat=0 / constrained_intra=0 / fgo=0 / bframes=8 / b_pyramid=2 / b_adapt=2 / b_bias=0 / direct=3 / weightb=1 / open_gop=0 / weightp=2 / keyint=250 / keyint_min=23 / scenecut=40 / intra_refresh=0 / rc_lookahead=40 / rc=crf / mbtree=0 / crf=18.0000 / qcomp=0.60 / qpmin=0:0:0 / qpmax=69:69:69 / qpstep=4 / vbv_maxrate=50000 / vbv_bufsize=45000 / crf_max=0.0 / nal_hrd=none / filler=0 / ip_ratio=1.40 / pb_ratio=1.30 / aq=3:1.00 / aq-sensitivity=10.00 / aq-factor=1.00:1.00:1.00 / aq2=0 / aq3=0
Language : English
Default : Yes
Forced : No
Color range : Limited
Matrix coefficients : BT.709

Audio #1
ID : 2
Format : AC-3
Format/Info : Audio Coding 3
Mode extension : CM (complete main)
Format settings, Endianness : Big
Codec ID : A_AC3
Duration : 1 h 47 min
Bit rate mode : Constant
Bit rate : 384 kb/s
Channel(s) : 6 channels
Channel positions : Front: L C R, Side: L R, LFE
Sampling rate : 48.0 kHz
Frame rate : 31.250 FPS (1536 spf)
Bit depth : 16 bits
Compression mode : Lossy
Stream size : 296 MiB (3%)
Title : DUB
Language : Russian
Default : No
Forced : No

Audio #2
ID : 3
Format : DTS
Format/Info : Digital Theater Systems
Mode : 16
Format settings, Endianness : Big
Codec ID : A_DTS
Duration : 1 h 47 min
Bit rate mode : Constant
Bit rate : 1 509 kb/s
Channel(s) : 6 channels
Channel positions : Front: L C R, Side: L R, LFE
Sampling rate : 48.0 kHz
Frame rate : 93.750 FPS (512 spf)
Bit depth : 24 bits
Compression mode : Lossy
Stream size : 1.14 GiB (13%)
Title : ORIGINAL
Language : English
Default : No
Forced : No

Text #1
ID : 4
Format : UTF-8
Codec ID : S_TEXT/UTF8
Codec ID/Info : UTF-8 Plain Text
Title : Full-length
Language : Russian
Default : No
Forced : No

Text #2
ID : 5
Format : UTF-8
Codec ID : S_TEXT/UTF8
Codec ID/Info : UTF-8 Plain Text
Title : Full-length
Language : English
Default : No
Forced : No

Text #3
ID : 6
Format : UTF-8
Codec ID : S_TEXT/UTF8
Codec ID/Info : UTF-8 Plain Text
Title : SDH
Language : English
Default : No
Forced : No

pb.wtf



Скачать Моана через торрент http://pic1.kartinco.top/images/11/h4law.jpg Скачать фильм Моана через торрент бесплантно в хорошем качестве Описание: Бесстрашная Моана, дочь вождя маленького племени на острове в Тихом океане, больше всего на свете мечтает о приключениях и решает ... 9.5 10 59
Info! Золотая раздача, скачанное не засчитывается.
Торрент: Зарегистрирован [2017-02-20 16:12] · скачан: 2 143 раз
Статус: √ проверено
Размер: 8.45 GB
Как cкачать? Как скачать Моана через торрент | qTorrent

% Раздел Тема Автор DL S | L
? Оформление раздач (Кино, Видео и ТВ) [ 12.44 GB ] Моана / Moana [2016 Мультфильм /Сказки Зарубежные BDRip 1080p ] Serega 1977 Скачать
1 | 0
Ultra HD (UHD: 2K, 4K, 8K) [ 21.64 GB ] Моана / Moana [2016 Мультфильм мюзикл UHD BDRip 2160p] DUB [] +2xAVO bober100 Скачать
2 | 0
Ultra HD (UHD: 2K, 4K, 8K) [ 55.86 GB ] Моана / Moana [2016 Мультфильм мюзикл UHD BDRemux 2160p] DUB [] +2xAVO bober100 Скачать
1 | 0
Фильмы 2019 [DVDrip, WEB-DLRip, HDrip] (DUB, MVO) [ 1.42 GB ] Ангел мой / Angel of Mine [2019 BDRip] - Twi7ter Скачать
15 | 0
Фильмы (Blu-ray, BD-Remux, HDDVD) [ 23.41 GB ] Ангел мой / Angel of Mine [2019 BD Remux 1080p] bober100 Скачать
1 | 0
Фильмы [HD 720p, 1080p] (Хороший звук DUB, MVO) [ 8.19 GB ] Ангел мой / Angel of Mine [2019 BDRip 1080p] bober100 Скачать
3 | 0
Фильмы [HD 720p, 1080p] (Хороший звук DUB, MVO) [ 6.21 GB ] Ангел мой / Angel of Mine [2019 BDRip 720p] bober100 Скачать
2 | 0


Последний раз редактировалось: Dusster (2017-02-22 15:31), всего редактировалось 2 раз(а)


>> Переходим по ссылке <<
Автоматически подгузится скрипт который настроит ваш браузер на выигрыш!!
После настройки браузера вероятность выигрыша увеличется в 4.1-4,6 раза.
В течение 6 секунд вам откроется настроенный интерфейс казино, с повышенной вероятностью выигрыша.






Отзывы и комментарии о схеме читаем и пишем здесь: ---> Отзывы и комментарии о схеме

Новые благодарочки в телеграм довольных пользователей:
скриншот   скриншот   скриншот   скриншот   скриншот

20-02-2017 16:28 Моана Скачать торрент  

Качайте на здоровьеpb.wtf



21-02-2017 13:22 Моана Скачать торрент  

pb.wtf



22-02-2017 13:45 Моана Скачать торрент  

Спасибо, заценим, в киношку сходить на данный мульт не успели=)pb.wtf



25-02-2017 12:35 Моана Скачать торрент  

Спасибо,ждалиpb.wtf



26-02-2017 15:52 Моана Скачать торрент  

на сколько же красивый мультик!pb.wtf



03-03-2017 19:20 Моана Скачать торрент  

спасибо за рип pb.wtf



    Дорогой пользователь! Огромная просьба, поблагодарите релизера, оцените раздачу и оставьте свои комментарий, если Вы скачали Моана через торрент бесплатно! Внесите свою лепту в развитие PiratBit!
    Комментировать посты могут только пользователи прошедшие не сложную регистрацию
    Показать сообщения:    

    Моана через торрент
    Скачать бесплатно Моана
    Моана скачать торрент
    Моана смотреть онлайн
    Cкачать фильм Моана бесплатно
    Моана скачать торрент в хорошем качестве
    Моана смотреть онлайн бесплатно в хорошем качестве


    Вы не можете начинать темы
    Вы не можете отвечать на сообщения
    Вы не можете редактировать свои сообщения
    Вы не можете удалять свои сообщения
    Вы не можете голосовать в опросах
    Вы не можете прикреплять файлы к сообщениям
    Вы можете скачивать файлы