1 сезон

3 сезон

iTunes

1

iTunes

MVO

iTunes

13

1 сезон

RePack

30

Deluxe

pack

Лицензия

ВАЖНО

ИГРА 18+

pack

RePack

MK11

RePack

jed

RePack

fifa19

RePack

RDR2

RePack

NEED FOR SPEED™ PAYBACK

4 сезон

9 сезон

Бесстыжие 9 сезон

Все сериалы

все сериалы на PB.wtf

RePack

FAR CRY 5

Anonymous, добрый вечер, мы катастрофически не успеваем собрать деньги на оплату серверов, помогите нам пожалуйста 5,10,15р., для нас важна любая помощь . В качестве благодарности мы отключим Вам всю рекламу на сайте (укажите свой ник в строку Ваше имя)!

×
  
Magnet ссылка

Союзники / Allied (Роберт Земекис) [2016, боевик, триллер, драма, BDRip-AVC от R.G.Resident] Дубляж - [Лицензия / iTunes] pb.wtf

Союзники через торрент pb.wtf

Размер: 2.22 GB | Добавлен: 4 года 5 мес. назад | Торрент скачан:613 раз
Скачать  

20-02-2017 23:04 Союзники Скачать торрент  

Союзники / Allied
««Nothing is as it seems»»

Год выпуска: 2016
Страна: США, Великобритания
Жанр: боевик, триллер, драма, мелодрама, военный
Продолжительность: 02:04:35
Перевод: Дубляж - [Лицензия / iTunes]
Субтитры: русские (Forced), русские (Full), английские (Forced), английские (Full)
Примечание: французская и немецкая речь переведена субтитрами

Режиссер: Роберт Земекис
В ролях:

Брэд Питт (Max Vatan), Марион Котийяр (Marianne Beauséjour), Лиззи Каплан (Bridget Vatan), Аугуст Диль (Hobar), Шарлотта Хоуп (Louise), Рэффи Кэссиди (Anna), Мэттью Гуд (Guy Sangster), Дэниэл Беттс (George Kavanagh), Саймон МакБерни (S.O.E. Official), Джаред Харрис (Frank Heslop), Тьерри Фремон (Paul Delamare), Энтон Лессер (Emmanuel Lombard)
Описание:
1942 год. Во время опасной миссии в Северной Африке разведчик Макс встречает участницу сопротивления Марианну. Их чувствам суждено подвергнуться тысяче испытаний, главным из которых станет испытание правдой...
Мировая премьера: 13 ноября 2016

MPAA: R - Лицам до 17 лет обязательно присутствие взрослого
Качество: BDRip-AVC Rip by
Формат: MKV
Видео: AVC, 1024x426 (2.40:1), 1718 kbps, 23,976 fps, 0,164 bpp
Аудио №1: русский / AC3 / 5.1 / 48 kHz / 384 kbps /
Аудио №2: английский / AC3 / 5.1 / 48 kHz / 448 kbps /
General
Unique ID : 232775489845231528872030428062838572558 (0xAF1EEDBA1F05B072B3E03FE71A52460E)
Complete name : D:\download\Allied.2016.BDRip-AVC by schultz R.G.Resident.mkv
Format : Matroska
Format version : Version 4 / Version 2
File size : 2.22 GiB
Duration : 2 h 4 min
Overall bit rate : 2 552 kb/s
Encoded date : UTC 2017-02-20 22:27:09
Writing application : mkvmerge v8.9.0 ('Father Daughter') 64bit
Writing library : libebml v1.3.3 + libmatroska v1.4.4

Video
ID : 1
Format : AVC
Format/Info : Advanced Video Codec
Format profile : High@L4.1
Format settings, CABAC : Yes
Format settings, ReFrames : 12 frames
Codec ID : V_MPEG4/ISO/AVC
Duration : 2 h 4 min
Bit rate : 1 718 kb/s
Width : 1 024 pixels
Height : 426 pixels
Display aspect ratio : 2.40:1
Frame rate mode : Constant
Frame rate : 23.976 (23976/1000) FPS
Color space : YUV
Chroma subsampling : 4:2:0
Bit depth : 8 bits
Scan type : Progressive
Bits/(Pixel*Frame) : 0.164
Stream size : 1.49 GiB (67%)
Writing library : x264 core 146 r2538 121396c
Encoding settings : cabac=1 / ref=12 / deblock=1:-3:-3 / analyse=0x3:0x113 / me=umh / subme=11 / psy=1 / psy_rd=1.00:0.00 / mixed_ref=1 / me_range=48 / chroma_me=1 / trellis=2 / 8x8dct=1 / cqm=0 / deadzone=21,11 / fast_pskip=0 / chroma_qp_offset=-2 / threads=12 / lookahead_threads=3 / sliced_threads=0 / nr=0 / decimate=0 / interlaced=0 / bluray_compat=0 / constrained_intra=0 / bframes=11 / b_pyramid=2 / b_adapt=2 / b_bias=0 / direct=3 / weightb=1 / open_gop=0 / weightp=2 / keyint=240 / keyint_min=23 / scenecut=40 / intra_refresh=0 / rc_lookahead=40 / rc=2pass / mbtree=1 / bitrate=1718 / ratetol=1.0 / qcomp=0.60 / qpmin=0 / qpmax=69 / qpstep=4 / cplxblur=20.0 / qblur=0.5 / vbv_maxrate=50000 / vbv_bufsize=62500 / nal_hrd=none / filler=0 / ip_ratio=1.40 / aq=1:1.00
Language : English
Default : Yes
Forced : No

Audio #1
ID : 2
Format : AC-3
Format/Info : Audio Coding 3
Mode extension : CM (complete main)
Format settings, Endianness : Big
Codec ID : A_AC3
Duration : 2 h 4 min
Bit rate mode : Constant
Bit rate : 384 kb/s
Channel(s) : 6 channels
Channel positions : Front: L C R, Side: L R, LFE
Sampling rate : 48.0 kHz
Frame rate : 31.250 FPS (1536 spf)
Compression mode : Lossy
Stream size : 342 MiB (15%)
Language : Russian
Default : Yes
Forced : No

Audio #2
ID : 3
Format : AC-3
Format/Info : Audio Coding 3
Mode extension : CM (complete main)
Format settings, Endianness : Big
Codec ID : A_AC3
Duration : 2 h 4 min
Bit rate mode : Constant
Bit rate : 448 kb/s
Channel(s) : 6 channels
Channel positions : Front: L C R, Side: L R, LFE
Sampling rate : 48.0 kHz
Frame rate : 31.250 FPS (1536 spf)
Compression mode : Lossy
Stream size : 399 MiB (18%)
Language : English
Default : No
Forced : No

Text #1
ID : 4
Format : UTF-8
Codec ID : S_TEXT/UTF8
Codec ID/Info : UTF-8 Plain Text
Duration : 1 h 38 min
Bit rate : 9 b/s
Count of elements : 141
Stream size : 6.46 KiB (0%)
Title : Forced
Language : Russian
Default : Yes
Forced : No

Text #2
ID : 5
Format : UTF-8
Codec ID : S_TEXT/UTF8
Codec ID/Info : UTF-8 Plain Text
Duration : 1 h 55 min
Bit rate : 57 b/s
Count of elements : 970
Stream size : 48.2 KiB (0%)
Title : Full
Language : Russian
Default : No
Forced : No

Text #3
ID : 6
Format : UTF-8
Codec ID : S_TEXT/UTF8
Codec ID/Info : UTF-8 Plain Text
Duration : 1 h 33 min
Bit rate : 5 b/s
Count of elements : 142
Stream size : 3.80 KiB (0%)
Title : Forced
Language : English
Default : No
Forced : No

Text #4
ID : 7
Format : UTF-8
Codec ID : S_TEXT/UTF8
Codec ID/Info : UTF-8 Plain Text
Duration : 1 h 48 min
Bit rate : 33 b/s
Count of elements : 951
Stream size : 26.8 KiB (0%)
Title : Full
Language : English
Default : No
Forced : No

Menu
00:00:00.000 : en:00:00:00.000
00:05:38.088 : en:00:05:38.088
00:16:39.749 : en:00:16:39.749
00:24:31.428 : en:00:24:31.428
00:33:52.280 : en:00:33:52.280
00:43:07.543 : en:00:43:07.543
00:49:14.118 : en:00:49:14.118
01:01:39.321 : en:01:01:39.321
01:09:36.339 : en:01:09:36.339
01:16:44.016 : en:01:16:44.016
01:26:14.961 : en:01:26:14.961
01:31:53.466 : en:01:31:53.466
01:40:12.173 : en:01:40:12.173
01:47:25.105 : en:01:47:25.105
01:56:35.614 : en:01:56:35.614

pb.wtf



Скачать Союзники через торрент http://i77.fastpic.ru/big/2016/0417/a7/808a646271c761f7c7d87df3d366b3a7.png Скачать фильм Союзники через торрент бесплантно в хорошем качестве Описание: 1942 год. Во время опасной миссии в Северной Африке разведчик Макс встречает участницу сопротивления Марианну. Их чувствам ... 9.5 10 11
Info! Золотая раздача, скачанное не засчитывается.
Торрент: Зарегистрирован [2017-02-20 23:04] · скачан: 613 раз
Статус: √ проверено
Размер: 2.22 GB
Как cкачать? Как скачать Союзники через торрент | UTorrent

% Раздел Тема Автор DL S | L
Ultra HD (UHD: 2K, 4K, 8K) — видео сверхвысокой чёткости [ 21.22 GB ] Союзники / Allied [2016 UHD BDRip 2160p SDR] DUB + 2xAVO sheker187 Скачать
1 | 0
Ultra HD (UHD: 2K, 4K, 8K) — видео сверхвысокой чёткости [ 61.26 GB ] Союзники / Allied [2016 военный UHD BDRemux 2160p] DUB [] bober100 Скачать
1 | 0
Фильмы (Blu-ray, BD-Remux, HDDVD) [ 34.92 GB ] Союзники / Allied [2016 военный BD Remux 1080p] [] 2xDUB+2xAVO bober100 Скачать
1 | 0
Фильмы 2016 [DVDrip, WEB-DLRip, HDrip] (DUB, MVO) [ 2.2 GB ] Союзники / Allied [2016 военный BDRip-AVC] DUB [] от ExKinoRay Enigma2010 Скачать
1 | 0
Ultra HD (UHD: 2K, 4K, 8K) — видео сверхвысокой чёткости [ 23.57 GB ] Союзники / Allied [2016 военный UHD WEBRip 2160p] [USA Transfer] 2xDUB [] bober100 Скачать
1 | 0
Фильмы [HD 720p, 1080p] (Хороший звук DUB, MVO) [ 7.74 GB ] Союзники / Allied [2016 BDRip 1080p] - [] -Lexx- Скачать
1 | 0
Фильмы 2016 [DVDrip, WEB-DLRip, HDrip] (DUB, MVO) [ 2.18 GB ] Союзники / Allied [2016 военный BDRip] - [] Twi7ter Скачать
2 | 0


Последний раз редактировалось: schultz (2017-02-25 20:06), всего редактировалось 1 раз

28-11-2019 20:33  

Отключить всю рекламу на сайте

21-02-2017 15:04 Союзники Скачать торрент  

Цитата:

Союзники / Allied (Роберт Земекис) [2016, боевик, триллер, драма, BDRip-AVC от R.G.Resident] Дубляж - [Лицензия / iTunes]

Сопли или всё же про войну?pb.wtf



    Дорогой пользователь! Огромная просьба, поблагодарите релизера, оцените раздачу и оставьте свои комментарий, если Вы скачали Союзники через торрент бесплатно! Внесите свою лепту в развитие PiratBit!
    Комментировать посты могут только пользователи прошедшие не сложную регистрацию
    Показать сообщения:    

    Союзники через торрент
    Скачать бесплатно Союзники
    Союзники скачать торрент
    Союзники смотреть онлайн
    Cкачать фильм Союзники бесплатно
    Союзники скачать торрент в хорошем качестве
    Союзники смотреть онлайн бесплатно в хорошем качестве


    Вы не можете начинать темы
    Вы не можете отвечать на сообщения
    Вы не можете редактировать свои сообщения
    Вы не можете удалять свои сообщения
    Вы не можете голосовать в опросах
    Вы не можете прикреплять файлы к сообщениям
    Вы можете скачивать файлы