новый адрес
Ссылка на приватное зеркало всего за 1$. Внимание количество ограничено!!!

iTunes

1+1

iTunes

мы

WEB-DL

1

iTunes

Чернобыль

iTunes

Ральф против интернета

Лицензия

ПШазам

Лицензия

Оно 2

Лицензия

30
pack

Вам бонус

ВАЖНО

!!Акция!!

Alien_RageХит недели

RePack

Resident Evil 21

ИГРА 18+

pack

RePack

jed

!!Акция!!

Alien_Rage

RePack

fifa19

RePack

Assassins Creed: Odyssey

RePack

NEED FOR SPEED™ PAYBACK

3 сезон

9 сезон

Бесстыжие 9 сезон

Все сериалы

все сериалы на PB.wtf

RePack

FAR CRY 5
Ребята, катастрофически не хватает 1900р. для оплаты серверов за Октябрь (всвязи с блокировками трафик упал в 3 раза), 1-2р., выручайте.
  

Хождение по мукам: Сёстры (Григорий Рошаль) [1957, СССР, драма, история, DVDRip от AVP Studio] pb.wtf

Хождение по мукам: Сёстры через торрент pb.wtf

Размер: 745 MB | Добавлен: 2 года 9 мес. назад | Торрент скачан:8 раз
Скачать  

21-02-2017 09:49 Хождение по мукам: Сёстры Скачать торрент  

Хождение по мукам: Сёстры
Страна: Россия
Производство: Мосфильм

Жанр: драма, история
Год выпуска: 1957
Продолжительность: 01:38:15

Перевод: Не требуется
Cубтитры: нет
Оригинальная аудиодорожка: русский

Режиссер: Григорий Рошаль

В ролях:
Руфина Нифонтова, Нина Веселовская, Вадим Медведев, Николай Гриценко, Виктор Шарлахов, Владимир Муравьёв, Владлен Давыдов, Павел Винников, Сергей Яковлев, Виктор Яковлев (II), Пётр Модников, Анатолий Дудоров...
Об актёрах подробней

Описание:
Петербург 1914 года, город мрачных рабочих окраин и яркой артистической жизни.
Героини фильма - сёстры Катя и Даша Булавины. Старшая Катя (Руфина Нифонтова) - жена либерального адвоката Смоковникова - уже долгое время живёт в тоске от пустоты собственной жизни. От мыслей о самоубийстве её спасает офицер русской армии Вадим Рощин (Николай Гриценко). Младшая Даша посещает кружок поэтов - футуристов. На пароходе по пути в Самару она встречает давнего знакомого Ивана Телегина (Вадим Медведев)...

Источник: DVD9 R5
Качество видео: DVDRip
Формат видео: AVI

Видео: 576x432 (4:3), 25 fps, XviD ~ 922 kbps avg, 0.148 bit/pixel
Аудио: 48 kHz, MP3 2.0, 128 kbps

Раздача от:
Общее
Полное имя : Seostry.1957.DVDRip-745_[New-team]_by_AVP_Studio.avi
Формат : AVI
Формат/Информация : Audio Video Interleave
Размер файла : 745 Мбайт
Продолжительность : 1 ч. 38 м.
Общий поток : 1060 Кбит/сек
Программа кодирования : VirtualDubMod 1.5.10.3 | www.virtualdub-fr.org || (build 2550/release)
Библиотека кодирования : VirtualDubMod build 2550/release

Видео
Идентификатор : 0
Формат : MPEG-4 Visual
Профиль формата : Advanced Simple@L5
Параметр BVOP формата : 1
Параметр QPel формата : Нет
Параметр GMC формата : Без точки перехода
Параметр матрицы формата : Выборочная
Идентификатор кодека : XVID
Идентификатор кодека/Подсказка : XviD
Продолжительность : 1 ч. 38 м.
Битрейт : 922 Кбит/сек
Ширина : 576 пикселей
Высота : 432 пикселя
Соотношение сторон : 4:3
Частота кадров : 25,000 кадров/сек
Цветовое пространство : YUV
Субдискретизация насыщенности : 4:2:0
Битовая глубина : 8 бит
Тип развёртки : Прогрессивная
Метод сжатия : С потерями
Бит/(Пиксели*Кадры) : 0.148
Размер потока : 648 Мбайт (87%)
Библиотека кодирования : XviD 73

Аудио
Идентификатор : 1
Формат : MPEG Audio
Версия формата : Version 1
Профиль формата : Layer 3
Идентификатор кодека : 55
Идентификатор кодека/Подсказка : MP3
Продолжительность : 1 ч. 38 м.
Вид битрейта : Постоянный
Битрейт : 128 Кбит/сек
Каналы : 2 канала
Частота : 48,0 КГц
Метод сжатия : С потерями
Размер потока : 89,9 Мбайт (12%)
Выравнивание : Соединение по промежуткам
Продолжительность промежутка : 40 мс. (1,00 видеокадр)
Время предзагрузки промежутка : 504 мс.
Библиотека кодирования : LAME3.99r
Настройки программы : -m s -V 4 -q 2 -lowpass 17 -b 128
pb.wtf



Скачать Хождение по мукам: Сёстры через торрент http://i89.fastpic.ru/big/2017/0220/62/9c259fbd2ab57d81299d3f5d4bc47262.png Скачать фильм Хождение по мукам: Сёстры через торрент бесплантно в хорошем качестве Описание:Петербург 1914 года, город мрачных рабочих окраин и яркой артистической жизни.Героини фильма - сёстры Катя и Даша Булавины. ... 5 10 1
Info! Золотая раздача, скачанное не засчитывается.
Торрент: Зарегистрирован [2017-02-21 09:49] · скачан: 8 раз
Статус: √ проверено
Размер: 745 MB
Как cкачать? Как скачать Хождение по мукам: Сёстры через торрент | qTorrent

% Раздел Тема Автор DL S | L
Кино СССР [ 1.46 GB ] Хождение по мукам: Сёстры [1957 СССР история DVDRip-AVC от AVP Studio] AVP Studio Скачать
1 | 0
Кино СССР [ 1.46 GB ] Хождение по мукам: Сёстры [1957 СССР история DVDRip от AVP Studio] AVP Studio Скачать
1 | 0

28-11-2019 20:33  

Отключить всю рекламу на сайте

    Дорогой пользователь! Огромная просьба, поблагодарите релизера, оцените раздачу и оставьте свои комментарий, если Вы скачали Хождение по мукам: Сёстры через торрент бесплатно! Внесите свою лепту в развитие PiratBit!
    Комментировать посты могут только пользователи прошедшие не сложную регистрацию
    Показать сообщения:    

    Хождение по мукам: Сёстры через торрент
    Скачать бесплатно Хождение по мукам: Сёстры
    Хождение по мукам: Сёстры скачать торрент
    Хождение по мукам: Сёстры смотреть онлайн
    Cкачать фильм Хождение по мукам: Сёстры бесплатно
    Хождение по мукам: Сёстры скачать торрент в хорошем качестве
    Хождение по мукам: Сёстры смотреть онлайн бесплатно в хорошем качестве


    Вы не можете начинать темы
    Вы не можете отвечать на сообщения
    Вы не можете редактировать свои сообщения
    Вы не можете удалять свои сообщения
    Вы не можете голосовать в опросах
    Вы не можете прикреплять файлы к сообщениям
    Вы можете скачивать файлы