Ссылка на приватное зеркало нашего сайта всего за 1$. Внимание количество ограничено!!!

2 сезон

iTunes

1 сезон

1

iTunes

iTunes

iTunes

1 сезон

RePack

30

ИГРА 18+

pack

ВАЖНО

!!Акция!!

Alien_RageХит недели

RePack

MK11
pack

Забери бонус

RePack

jed

!!Акция!!

Alien_Rage

RePack

fifa19

RePack

Assassins Creed: Odyssey

RePack

NEED FOR SPEED™ PAYBACK

4 сезон

9 сезон

Бесстыжие 9 сезон

Все сериалы

все сериалы на PB.wtf

RePack

FAR CRY 5
  

Голод / The Hunger (Тони Скотт) [1983, ужасы, триллер, драма, мелодрама, BDRip 1080p от еnvy / NNNB] MVO, AVO pb.wtf

Голод через торрент pb.wtf

Раздают: 6 [ 0 KB/s ]
Размер: 7.88 GB | Добавлен: 3 года 8 мес. назад | Торрент скачан:125 раз
Скачать  

21-02-2017 16:43 Голод Скачать торрент  

Информация о фильме

Русское название: Голод
Оригинальное название: The Hunger
Год выхода: 1983
Жанр: ужасы, триллер, драма, мелодрама
Режиссер: Тони Скотт
Выпущено: Великобритания, США
Продолжительность: 01:36:30
Перевод: Профессиональный (многоголосый, закадровый), Авторский (одноголосый, закадровый)
В ролях: Катрин Денёв, Сьюзен Сарандон, Дэвид Боуи, Клифф Де Янг, Бет Элерс, Дэн Хедайя, Руфус Коллинз, Сюзэнн Бертиш, Джеймс Обри, Энн Магнусо
Сюжет фильма

Завораживющий, очень красиво снятый фильм с сочетанием ужасов и эротики о вампирше Денев, которой необходима кровь, чтобы поддерживать в себе вечную жизнь и молодость. Черные кожаные костюмы, черные очки, секс, эстетически выдержанная стилизация смерти, крови и эротики в сочетании с соответствующей музыкой. Сэрэндон, проводящая опыты над обезьянами в исследовательской клинике, становится жертвой и подругой Денев в вампирских кроваво-сексуальных оргиях. Расплата за наслаждения очень высока - Боуи, например, вкусивший этих прелестей, стареет не по дням, а по часам. Сцены старения потрясающи.


Файл

Качество: BDRip 1080p (исходник Blu-Ray Disc Remux)
Формат: MKV
Видео: 1918x804, 10740 Кбит/сек, 23,976 кадр/сек, AVC, x264, High@L4.1, 2.40:1, 0.290 Бит/[Пиксели*Кадры]
Аудио 1: AC-3, 192 Кбит/сек, 2 канала(ов), 48,0 КГц - Многоголосый закадровый / Русский
Аудио 2: AC-3, 192 Кбит/сек, 2 канала(ов), 48,0 КГц - Многоголосый закадровый / Русский
Аудио 3: AC-3, 192 Кбит/сек, 2 канала(ов), 48,0 КГц - Многоголосый закадровый, НТВ+ / Русский
Аудио 4: AC-3, 192 Кбит/сек, 2 канала(ов), 48,0 КГц - Одноголосый закадровый, А.Михалёв / Русский
Аудио 5: AC-3, 192 Кбит/сек, 2 канала(ов), 48,0 КГц - Оригинал / Английский
Субтитры: Русские | Полные, Английские | Полные (SDH)
Форсированные субтитры: Нет
Чаптеры (Главы): Есть






Автор Рипа: Группа:


Format : Matroska
Format version : Version 2
File size : 7.88 GiB
Duration : 1 h 36 min
Overall bit rate : 11.7 Mb/s
Movie name : The Hunger.(1983).BDRip.1080p.[envy]
Encoded date : UTC 2017-02-21 10:38:36
Writing application : mkvmerge v5.8.0 ('No Sleep / Pillow') built on Sep 2 2012 15:37:04
Writing library : libebml v1.2.3 + libmatroska v1.3.0

Video
ID : 1
Format : AVC
Format/Info : Advanced Video Codec
Format profile : High@L4.1
Format settings, CABAC : Yes
Format settings, ReFrames : 5 frames
Codec ID : V_MPEG4/ISO/AVC
Duration : 1 h 36 min
Bit rate : 10.7 Mb/s
Width : 1 918 pixels
Height : 804 pixels
Display aspect ratio : 2.40:1
Frame rate mode : Constant
Frame rate : 23.976 (24000/1001) FPS
Color space : YUV
Chroma subsampling : 4:2:0
Bit depth : 8 bits
Scan type : Progressive
Bits/(Pixel*Frame) : 0.290
Stream size : 7.08 GiB (90%)
Title : The Hunger.(1983).BDRip.1080p.[envy]
Writing library : x264 core 148 r2744 b97ae06
Encoding settings : cabac=1 / ref=5 / deblock=1:-3:-3 / analyse=0x3:0x133 / me=umh / subme=11 / psy=1 / psy_rd=1.00:0.00 / mixed_ref=1 / me_range=32 / chroma_me=1 / trellis=2 / 8x8dct=1 / cqm=0 / deadzone=21,11 / fast_pskip=0 / chroma_qp_offset=-2 / threads=12 / lookahead_threads=1 / sliced_threads=0 / nr=0 / decimate=1 / interlaced=0 / bluray_compat=0 / constrained_intra=0 / bframes=5 / b_pyramid=2 / b_adapt=2 / b_bias=0 / direct=3 / weightb=1 / open_gop=0 / weightp=2 / keyint=240 / keyint_min=23 / scenecut=40 / intra_refresh=0 / rc=2pass / mbtree=0 / bitrate=10740 / ratetol=2.0 / qcomp=0.60 / qpmin=0 / qpmax=69 / qpstep=4 / cplxblur=20.0 / qblur=0.5 / ip_ratio=1.40 / pb_ratio=1.30 / aq=1:0.70
Language : English
Default : Yes
Forced : No

Audio #1
ID : 2
Format : AC-3
Format/Info : Audio Coding 3
Mode extension : CM (complete main)
Format settings, Endianness : Big
Codec ID : A_AC3
Duration : 1 h 36 min
Bit rate mode : Constant
Bit rate : 192 kb/s
Channel(s) : 2 channels
Channel positions : Front: L R
Sampling rate : 48.0 kHz
Frame rate : 31.250 FPS (1536 spf)
Compression mode : Lossy
Stream size : 133 MiB (2%)
Title : MVO
Language : Russian
Default : Yes
Forced : No

Audio #2
ID : 3
Format : AC-3
Format/Info : Audio Coding 3
Mode extension : CM (complete main)
Format settings, Endianness : Big
Codec ID : A_AC3
Duration : 1 h 36 min
Bit rate mode : Constant
Bit rate : 192 kb/s
Channel(s) : 2 channels
Channel positions : Front: L R
Sampling rate : 48.0 kHz
Frame rate : 31.250 FPS (1536 spf)
Compression mode : Lossy
Stream size : 133 MiB (2%)
Title : MVO
Language : Russian
Default : No
Forced : No

Audio #3
ID : 4
Format : AC-3
Format/Info : Audio Coding 3
Mode extension : CM (complete main)
Format settings, Endianness : Big
Codec ID : A_AC3
Duration : 1 h 36 min
Bit rate mode : Constant
Bit rate : 192 kb/s
Channel(s) : 2 channels
Channel positions : Front: L R
Sampling rate : 48.0 kHz
Frame rate : 31.250 FPS (1536 spf)
Compression mode : Lossy
Stream size : 133 MiB (2%)
Title : MVO HTB+
Language : Russian
Default : No
Forced : No

Audio #4
ID : 5
Format : AC-3
Format/Info : Audio Coding 3
Mode extension : CM (complete main)
Format settings, Endianness : Big
Codec ID : A_AC3
Duration : 1 h 36 min
Bit rate mode : Constant
Bit rate : 192 kb/s
Channel(s) : 2 channels
Channel positions : Front: L R
Sampling rate : 48.0 kHz
Frame rate : 31.250 FPS (1536 spf)
Compression mode : Lossy
Stream size : 133 MiB (2%)
Title : AVO Михалёв
Language : Russian
Default : No
Forced : No

Audio #5
ID : 6
Format : AC-3
Format/Info : Audio Coding 3
Mode extension : CM (complete main)
Format settings, Endianness : Big
Codec ID : A_AC3
Duration : 1 h 36 min
Bit rate mode : Constant
Bit rate : 192 kb/s
Channel(s) : 2 channels
Channel positions : Front: L R
Sampling rate : 48.0 kHz
Frame rate : 31.250 FPS (1536 spf)
Compression mode : Lossy
Stream size : 133 MiB (2%)
Title : Eng
Language : English
Default : No
Forced : No

Text #1
ID : 7
Format : UTF-8
Codec ID : S_TEXT/UTF8
Codec ID/Info : UTF-8 Plain Text
Title : Rus full
Language : Russian
Default : No
Forced : No

Text #2
ID : 8
Format : UTF-8
Codec ID : S_TEXT/UTF8
Codec ID/Info : UTF-8 Plain Text
Title : Eng SDH
Language : English
Default : No
Forced : No

Menu
00:00:00.000 : :00:00:00.000
00:03:10.899 : :00:03:10.899
00:06:30.098 : :00:06:30.098
00:12:29.374 : :00:12:29.374
00:16:20.938 : :00:16:20.938
00:21:09.852 : :00:21:09.852
00:27:52.296 : :00:27:52.296
00:32:26.153 : :00:32:26.153
00:38:40.485 : :00:38:40.485
00:44:49.896 : :00:44:49.896
00:48:23.776 : :00:48:23.776
00:52:23.223 : :00:52:23.223
00:56:13.328 : :00:56:13.328
01:00:05.602 : :01:00:05.602
01:03:30.432 : :01:03:30.432
01:08:30.148 : :01:08:30.148
01:10:41.904 : :01:10:41.904
01:13:53.512 : :01:13:53.512
01:16:47.228 : :01:16:47.228
01:21:12.034 : :01:21:12.034
01:24:44.121 : :01:24:44.121
01:29:48.466 : :01:29:48.466
01:33:13.713 : :01:33:13.713

pb.wtf



Скачать Голод через торрент http://img11.lostpic.net/2017/02/21/f08112fcb1169309476e4ab1d33f21f7.png Скачать фильм Голод через торрент бесплантно в хорошем качестве В ролях: Катрин Денёв, Сьюзен Сарандон, Дэвид Боуи, Клифф Де Янг, Бет Элерс, Дэн Хедайя, Руфус Коллинз, Сюзэнн Бертиш, Джеймс Обри, Энн ... 10 10 2
Info! Золотая раздача, скачанное не засчитывается.
Торрент: Зарегистрирован [2017-02-21 16:47] · скачан: 125 раз
Статус: √ проверено
Размер: 7.88 GB
Как cкачать? Как скачать Голод через торрент | qTorrent

% Раздел Тема Автор DL S | L
Фильмы [HD 720p, 1080p] (Хороший звук DUB, MVO) [ 7.29 GB ] Голод / The Hunger [1983 BDRip 1080p by msltel] MVO DVO AVO msltel Скачать
1 | 0
Фильмы [HD 720p, 1080p] (Хороший звук DUB, MVO) [ 3.06 GB ] Голод / The Hunger [1983 BDRip 720p by msltel] MVO DVO AVO msltel Скачать
1 | 0
Фильмы до 2000 г. [ 1.78 GB ] Голод / The Hunger [1983 BDRip AVC by msltel] MVO DVO AVO msltel Скачать
1 | 0

28-11-2019 20:33  

Отключить всю рекламу на сайте

    Дорогой пользователь! Огромная просьба, поблагодарите релизера, оцените раздачу и оставьте свои комментарий, если Вы скачали Голод через торрент бесплатно! Внесите свою лепту в развитие PiratBit!
    Комментировать посты могут только пользователи прошедшие не сложную регистрацию
    Показать сообщения:    

    Голод через торрент
    Скачать бесплатно Голод
    Голод скачать торрент
    Голод смотреть онлайн
    Cкачать фильм Голод бесплатно
    Голод скачать торрент в хорошем качестве
    Голод смотреть онлайн бесплатно в хорошем качестве


    Вы не можете начинать темы
    Вы не можете отвечать на сообщения
    Вы не можете редактировать свои сообщения
    Вы не можете удалять свои сообщения
    Вы не можете голосовать в опросах
    Вы не можете прикреплять файлы к сообщениям
    Вы можете скачивать файлы