Всегда рабочее зеркало без VPN и Proxy просто перед .vidak.icu напиши любое слово или цифру, Пример http://2771.vidak.icu

iTunes

2 сезон

1 сезон

1

1 сезон

iTunes

2 сезон

13

1 сезон

Deluxe

pack

Рекомендуем

Пиратка

30

ВАЖНО

RePack

MK11

RePack

jed

RePack

fifa19

RePack

RDR2

RePack

NEED FOR SPEED™ PAYBACK

Кинопоиск HD

6 сезон

 Острые козырьки 6 сезон

Все сериалы

все сериалы на PB.wtf

RePack

FAR CRY 5

Anonymous, нам критически не хватает 5601 руб. на оплату серверов и переферии за Апрель, помоги нам пожалуйста, вся надежда только на тебя. В благодарность мы отключим тебе всю рекламу на сайте!

×
  
Magnet ссылка

Осада базы "Глория" / The Siege of Firebase Gloria (Брайан Тренчард-Смит) [1989, боевик, драма, военный, BDRip 1080p by msltel] DVO, AVO pb.wtf

Осада базы "Глория" через торрент pb.wtf

Размер: 11.89 GB | Добавлен: 5 лет 3 мес. назад | Торрент скачан:40 раз
Смотреть онлайн Осада базы "Глория" | Скачать    Ребята, помогите собрать деньги на оплату серверов!!!

22-02-2017 06:33 Осада базы "Глория" Скачать торрент  

Название: Осада базы "Глория"
Оригинальное название: The Siege of Firebase Gloria
Год выпуска: 1989
Страна: Австралия, Филиппины
Жанр: боевик, драма, военный
Продолжительность: 01:39:36
Перевод: профессиональный двухголосый, авторский

Режиссёр: Брайан Тренчард-Смит

В ролях: Вингз Хаузер, Р. Ли Эрми, Роберт Аревало, Марк Нили, Гаррисон Хершбергер, Клайд Джонс, Марджи Герард, Джон Кэлвин, Альберт Попвелл, Майкл Круз, Эрих Хаузер, Гаел Ромеро, Дон Уилсон, Ник Николсон, Дэн Остин, Дэвид Андерсон, Уоррен Диксон, Бенни Коллинз, Грег Уолш, Генри Стрцалковский, Лейла Джонсон, Венди Стоун

Описание: Отряд американских солдат патрулирует территорию и попадает на базу «Глория» в джунглях, где царит полный разброд и брожение: командир базы в стельку пьяный, солдаты долбят дурь и постреливают по джунглям. Командир отряда берет командование на себя. Они с большими потерями отбивают мощную атаку гуков…



Качество: BDRip 1080p
Формат: MKV
Видео: MPEG-4 AVC, 15.2 Mбит/с, 1900x1040, 23,976 кадра/с
Аудио 1: русский, AC3, 192 kbps, 2 ch, 48 kHz [профессиональный двухголосый, HTB+]
Аудио 2: русский, AC3, 192 kbps, 2 ch, 48 kHz [авторский, Антон Карповский]
Аудио 3: английский, DTS, 1509 kbps, 2 ch, 48 kHz [оригинал]
Имеются неименованные главы/чаптеры.
Общее
Уникальный идентификатор : 250946668552653361564737921773073517972 (0xBCCA9201DDC56A1AAA43FD100902CD94)
Полное имя : D:\Video\Осада базы Глория.1989.BDRip.1080p by msltel.mkv
Формат : Matroska
Версия формата : Version 4 / Version 2
Размер файла : 11,9 Гбайт
Продолжительность : 1 ч. 39 м.
Общий поток : 17,1 Мбит/сек
Название фильма : Rip by msltel
Дата кодирования : UTC 2017-02-22 01:05:20
Программа кодирования : mkvmerge v8.2.0 ('World of Adventure') 64bit
Библиотека кодирования : libebml v1.3.1 + libmatroska v1.4.2

Видео
Идентификатор : 1
Формат : AVC
Формат/Информация : Advanced Video Codec
Профиль формата : High@L4.1
Параметр CABAC формата : Да
Параметр ReFrames формата : 4 кадра
Идентификатор кодека : V_MPEG4/ISO/AVC
Продолжительность : 1 ч. 39 м.
Битрейт : 15,2 Мбит/сек
Ширина : 1900 пикселей
Высота : 1040 пикселей
Соотношение сторон : 1,85:1
Режим частоты кадров : Постоянный
Частота кадров : 23,976 (24000/1001) кадра/сек
Цветовое пространство : YUV
Субдискретизация насыщенности : 4:2:0
Битовая глубина : 8 бит
Тип развёртки : Прогрессивная
Бит/(Пиксели*Кадры) : 0.321
Размер потока : 10,6 Гбайт (89%)
Библиотека кодирования : x264 core 146 r2538 121396c
Настройки программы : cabac=1 / ref=4 / deblock=1:-3:-2 / analyse=0x3:0x113 / me=umh / subme=11 / psy=1 / psy_rd=1.00:0.15 / mixed_ref=1 / me_range=32 / chroma_me=1 / trellis=2 / 8x8dct=1 / cqm=0 / deadzone=21,11 / fast_pskip=0 / chroma_qp_offset=-3 / threads=6 / lookahead_threads=1 / sliced_threads=0 / nr=0 / decimate=1 / interlaced=0 / bluray_compat=0 / constrained_intra=0 / bframes=12 / b_pyramid=2 / b_adapt=2 / b_bias=0 / direct=1 / weightb=1 / open_gop=0 / weightp=2 / keyint=230 / keyint_min=23 / scenecut=40 / intra_refresh=0 / rc_lookahead=40 / rc=crf / mbtree=0 / crf=19.1 / qcomp=0.60 / qpmin=0 / qpmax=69 / qpstep=4 / vbv_maxrate=62500 / vbv_bufsize=78125 / crf_max=0.0 / nal_hrd=none / filler=0 / ip_ratio=1.40 / pb_ratio=1.30 / aq=1:1.00
Язык : English
Default : Да
Forced : Нет

Аудио #1
Идентификатор : 2
Формат : AC-3
Формат/Информация : Audio Coding 3
Расширение режима : CM (complete main)
Параметр Endianness формата : Big
Идентификатор кодека : A_AC3
Продолжительность : 1 ч. 39 м.
Вид битрейта : Постоянный
Битрейт : 192 Кбит/сек
Каналы : 2 канала
Расположение каналов : Front: L R
Частота : 48,0 КГц
Частота кадров : 31,250 кадров/сек (1536 spf)
Битовая глубина : 16 бит
Метод сжатия : С потерями
Размер потока : 137 Мбайт (1%)
Заголовок : DVO (HTB+)
Язык : Russian
Default : Да
Forced : Нет

Аудио #2
Идентификатор : 3
Формат : AC-3
Формат/Информация : Audio Coding 3
Расширение режима : CM (complete main)
Параметр Endianness формата : Big
Идентификатор кодека : A_AC3
Продолжительность : 1 ч. 39 м.
Вид битрейта : Постоянный
Битрейт : 192 Кбит/сек
Каналы : 2 канала
Расположение каналов : Front: L R
Частота : 48,0 КГц
Частота кадров : 31,250 кадров/сек (1536 spf)
Битовая глубина : 16 бит
Метод сжатия : С потерями
Размер потока : 137 Мбайт (1%)
Заголовок : AVO (Антон Карповский)
Язык : Russian
Default : Нет
Forced : Нет

Аудио #3
Идентификатор : 4
Формат : DTS
Формат/Информация : Digital Theater Systems
Режим : 16
Параметр Endianness формата : Big
Идентификатор кодека : A_DTS
Продолжительность : 1 ч. 39 м.
Вид битрейта : Постоянный
Битрейт : 1509 Кбит/сек
Каналы : 2 канала
Расположение каналов : Front: L R
Частота : 48,0 КГц
Частота кадров : 93,750 кадра/сек (512 spf)
Битовая глубина : 16 бит
Метод сжатия : С потерями
Размер потока : 1,05 Гбайт (9%)
Заголовок : original
Язык : English
Default : Нет
Forced : Нет

Меню
00:00:00.000 : :Chapter 01
00:11:05.498 : :Chapter 02
00:23:05.926 : :Chapter 03
00:36:01.868 : :Chapter 04
00:47:39.398 : :Chapter 05
01:01:42.657 : :Chapter 06
01:15:45.124 : :Chapter 07
01:25:46.015 : :Chapter 08
pb.wtf



Скачать Осада базы "Глория" через торрент http://s019.radikal.ru/i614/1702/5f/19b2e3e4462a.jpg Скачать, смотреть онлайн Осада базы "Глория" бесплантно в хорошем качестве Описание: Отряд американских солдат патрулирует территорию и попадает на базу «Глория» в джунглях, где царит полный разброд и брожение: ... 7 10 3
Info! Золотая раздача, скачанное не засчитывается.
Торрент: Зарегистрирован [2017-02-22 06:33] · скачан: 40 раз
Статус: √ проверено
Размер: 11.89 GB
Как cкачать? Как скачать Осада базы "Глория" через торрент | UTorrent

28-11-2019 20:33  

Отключить всю рекламу на сайте

    Дорогой пользователь! Огромная просьба, поблагодарите релизера, оцените раздачу и оставьте свои комментарий, если Вы скачали Осада базы "Глория" через торрент бесплатно!
    Комментировать посты могут только пользователи прошедшие не сложную регистрацию
    Показать сообщения:    

    Осада базы "Глория" через торрент
    Скачать бесплатно Осада базы "Глория"
    Осада базы "Глория" скачать торрент
    Осада базы "Глория" смотреть онлайн
    Cкачать фильм Осада базы "Глория" бесплатно
    Осада базы "Глория" скачать торрент в хорошем качестве
    Осада базы "Глория" смотреть онлайн бесплатно в хорошем качестве


    Вы не можете начинать темы
    Вы не можете отвечать на сообщения
    Вы не можете редактировать свои сообщения
    Вы не можете удалять свои сообщения
    Вы не можете голосовать в опросах
    Вы не можете прикреплять файлы к сообщениям
    Вы можете скачивать файлы