новый адрес пиратбит piratbit
Мега распродажа FORZA HORIZON 4 ULTIMATE+ВСЕ DLC+ОНЛАЙН всего за 499р. 349 руб. (супер цена). Внимание количество ограничено!!!

iTunes

1+1

iTunes

мы

iTunes

1

iTunes

Чернобыль

iTunes

Ральф против интернета

Лицензия

ПШазам

Лицензия

Игра престолов

Лицензия

30
pack

ВАЖНО

!!Акция!!

Alien_RageХит недели

RePack

Resident Evil 21

ИГРА 18+

pack

RePack

Metro:Exodus

!!Акция!!

Alien_Rage

RePack

fifa19

RePack

Assassins Creed: Odyssey

RePack

NEED FOR SPEED™ PAYBACK

3 сезон

9 сезон

Бесстыжие 9 сезон

Все сериалы

все сериалы на PB.wtf

RePack

FAR CRY 5
Ребята, катастрофически не хватает 1900р. для оплаты серверов за Октябрь (всвязи с блокировками трафик упал в 3 раза), 1-2р., выручайте.
  

Хождение по мукам: Восемнадцатый год (Григорий Рошаль) [1958, СССР, драма, история, DVDRip от AVP Studio] pb.wtf

Хождение по мукам: Восемнадцатый год через торрент pb.wtf

Размер: 745 MB | Добавлен: 2 года 8 мес. назад | Торрент скачан:11 раз
Скачать  

22-02-2017 07:50 Хождение по мукам: Восемнадцатый год Скачать торрент  

Хождение по мукам: Восемнадцатый год
Страна: Россия
Производство: Мосфильм

Жанр: драма, история
Год выпуска: 1958
Продолжительность: 01:39:06

Перевод: Не требуется
Cубтитры: нет
Оригинальная аудиодорожка: русский

Режиссер: Григорий Рошаль

В ролях:
Руфина Нифонтова, Нина Веселовская, Вадим Медведев, Николай Гриценко, Майя Булгакова, Виктор Авдюшко, Сергей Яковлев, Павел Винников, Виктор Яковлев (II), Евгений Матвеев, Григорий Кириллов, Владимир Муравьёв, Леонид Пархоменко, Евгений Тетерин, Михаил Козаков, Александр Смирнов, Владимир Сез, Константин Немоляев, В. Адаменко, Георгий Георгиу, Вячеслав Гостинский...
Об актёрах подробней

Описание:
В России Гражданская война. Её безжалостный вихрь разметал уже сложившиеся супружеские пары Даши и Ивана Телегиных и Кати и Вадима Рощиных. После смерти ребёнка Даша не находит в себе сил преодолеть ощущение собственной никчемности. Телегин уезжает на фронт в Красную Армию. Катя и Рощин едут на юг, по дороге Вадим решает вступить в Добровольческую армию и расстаётся с Катей.

Источник: DVD9 R5
Качество видео: DVDRip
Формат видео: AVI

Видео: 576x432 (4:3), 25 fps, XviD ~ 914 kbps avg, 0.147 bit/pixel
Аудио: 48 kHz, MP3 2.0, 128 kbps

Раздача от:
Общее
Полное имя : Vosemnadcatyy.god.1958.DVDRip-745_[New-team]_by_AVP_Studio.avi
Формат : AVI
Формат/Информация : Audio Video Interleave
Размер файла : 745 Мбайт
Продолжительность : 1 ч. 39 м.
Общий поток : 1052 Кбит/сек
Программа кодирования : VirtualDubMod 1.5.10.3 | www.virtualdub-fr.org || (build 2550/release)
Библиотека кодирования : VirtualDubMod build 2550/release

Видео
Идентификатор : 0
Формат : MPEG-4 Visual
Профиль формата : Advanced Simple@L5
Параметр BVOP формата : 1
Параметр QPel формата : Нет
Параметр GMC формата : Без точки перехода
Параметр матрицы формата : Выборочная
Идентификатор кодека : XVID
Идентификатор кодека/Подсказка : XviD
Продолжительность : 1 ч. 39 м.
Битрейт : 914 Кбит/сек
Ширина : 576 пикселей
Высота : 432 пикселя
Соотношение сторон : 4:3
Частота кадров : 25,000 кадров/сек
Цветовое пространство : YUV
Субдискретизация насыщенности : 4:2:0
Битовая глубина : 8 бит
Тип развёртки : Прогрессивная
Метод сжатия : С потерями
Бит/(Пиксели*Кадры) : 0.147
Размер потока : 648 Мбайт (87%)
Библиотека кодирования : XviD 73

Аудио
Идентификатор : 1
Формат : MPEG Audio
Версия формата : Version 1
Профиль формата : Layer 3
Идентификатор кодека : 55
Идентификатор кодека/Подсказка : MP3
Продолжительность : 1 ч. 39 м.
Вид битрейта : Постоянный
Битрейт : 128 Кбит/сек
Каналы : 2 канала
Частота : 48,0 КГц
Метод сжатия : С потерями
Размер потока : 90,7 Мбайт (12%)
Выравнивание : Соединение по промежуткам
Продолжительность промежутка : 40 мс. (1,00 видеокадр)
Время предзагрузки промежутка : 504 мс.
Библиотека кодирования : LAME3.99r
Настройки программы : -m s -V 4 -q 2 -lowpass 17 -b 128
pb.wtf



Скачать Хождение по мукам: Восемнадцатый год через торрент http://i90.fastpic.ru/big/2017/0220/bc/9d71012815a9dc5b52e41b17fa8cb1bc.png Скачать фильм Хождение по мукам: Восемнадцатый год через торрент бесплантно в хорошем качестве Описание:В России Гражданская война. Её безжалостный вихрь разметал уже сложившиеся супружеские пары Даши и Ивана Телегиных и Кати и Вадима ... 5 10 1
Info! Золотая раздача, скачанное не засчитывается.
Торрент: Зарегистрирован [2017-02-22 07:50] · скачан: 11 раз
Статус: √ проверено
Размер: 745 MB
Как cкачать? Как скачать Хождение по мукам: Восемнадцатый год через торрент | qTorrent

% Раздел Тема Автор DL S | L
Кино СССР [ 1.46 GB ] Хождение по мукам: Восемнадцатый год [1958 СССР история DVDRip-AVC от AVP Studio] AVP Studio Скачать
1 | 0
Кино СССР [ 1.46 GB ] Хождение по мукам: Восемнадцатый год [1958 СССР история DVDRip от AVP Studio] AVP Studio Скачать
1 | 0


>> Регистрируемся здесь <<






Отзывы и комментарии о схеме читаем и пишем здесь: ---> Отзывы и комментарии о схеме

Новые благодарочки в телеграм довольных пользователей:
скриншот   скриншот   скриншот   скриншот   скриншот
    Дорогой пользователь! Огромная просьба, поблагодарите релизера, оцените раздачу и оставьте свои комментарий, если Вы скачали Хождение по мукам: Восемнадцатый год через торрент бесплатно! Внесите свою лепту в развитие PiratBit!
    Комментировать посты могут только пользователи прошедшие не сложную регистрацию
    Показать сообщения:    

    Хождение по мукам: Восемнадцатый год через торрент
    Скачать бесплатно Хождение по мукам: Восемнадцатый год
    Хождение по мукам: Восемнадцатый год скачать торрент
    Хождение по мукам: Восемнадцатый год смотреть онлайн
    Cкачать фильм Хождение по мукам: Восемнадцатый год бесплатно
    Хождение по мукам: Восемнадцатый год скачать торрент в хорошем качестве
    Хождение по мукам: Восемнадцатый год смотреть онлайн бесплатно в хорошем качестве


    Вы не можете начинать темы
    Вы не можете отвечать на сообщения
    Вы не можете редактировать свои сообщения
    Вы не можете удалять свои сообщения
    Вы не можете голосовать в опросах
    Вы не можете прикреплять файлы к сообщениям
    Вы можете скачивать файлы