Мега распродажа FORZA HORIZON 4 ULTIMATE+ВСЕ DLC+ОНЛАЙН всего за 499р. 349 руб. (супер цена). Внимание количество ограничено!!!

iTunes

1+1

iTunes

мы

iTunes

1

1 сезон

Чернобыль

1 сезон

Ральф против интернета

Лицензия

ПШазам

8 сезон

Игра престолов

Лицензия

30
pack

ВАЖНО

!!Акция!!

Alien_RageХит недели

RePack

Resident Evil 21

ИГРА 18+

pack

RePack

Metro:Exodus

!!Акция!!

Alien_Rage

RePack

fifa19

RePack

Assassins Creed: Odyssey

RePack

NEED FOR SPEED™ PAYBACK

3 сезон

9 сезон

Бесстыжие 9 сезон

Все сериалы

все сериалы на PB.wtf

RePack

FAR CRY 5
Ребята, катастрофически не хватает 2730р. для оплаты серверов за ИЮНЬ (всвязи с блокировками трафик упал в 3 раза), 1-2р., выручайте.
  

Обнаженная Маха / Volaverunt (Бигас Луна) [1999 г., Драма, DVDRip-AVC] VO от ExKinoRay pb.wtf

Обнаженная Маха через торрент pb.wtf

Размер: 2.34 GB | Добавлен: 2 года 4 мес. назад | Торрент скачан:5 раз
Скачать  

23-02-2017 07:03 Обнаженная Маха Скачать торрент  

Обнаженная Маха / Volaverunt
Год выпуска: 1999
Страна: Испания, Франция
Жанр: Драма
Продолжительность: 01:53:21
Перевод: Любительский (одноголосый)

Режиссер: Бигас Луна

Премьера в мире: 1 октября 1999

rating

В ролях: Айтана Санчес-Хихон, Пенелопа Крус, Хорди Молья, Хорхе Перугорриа, Стефания Сандрелли

Описание: Июль 1802 года. Блистательная эпоха в истории Испании. Богатая, красивая любовница самых влиятельных людей своего времени донья Мария дель Пилар, герцогиня Альба, устраивает ужин, чтобы отпраздновать завершение строительства своего нового дворца. Среди толпы гостей выделяются два человека, оба бывшие любовники герцогини, — Годой, премьер-министр Испании, и великий художник Франсиско де Гойя. Веселье длится всю ночь, а на следующее утро женщину находят мертвой в ее постели…
Герцогиня была загадкой и при жизни, и в своей смерти, ключ к ее судьбе кажется потерянным навсегда… но раскрывается тайна, которая, наконец, проливает свет на странную правду…

Доп. информация: Версия фильма на 23 минуты длиннее версии с профессиональным переводом.

Качество: DVDRip-AVC
Формат: MKV
Видео кодек: MPEG4
Аудио кодек: AC3
Видео: MPEG-4 AVC, 2500 Кбит/с, 716x434@1018x434, 25 кадров/сек
Аудио#1: AC3, 6 ch, 448 Кбит/с, 48 Кгц
Релиз от:




raw [info]: 716x434p 64:45 @ 25/1 fps (cfr)
x264 [info]: using SAR=64/45
x264 [info]: using cpu capabilities: MMX2 SSE2Fast LZCNT
x264 [info]: profile High, level 4.1
x264 [info]: frame I:929 Avg QP:15.62 size: 51713
x264 [info]: frame P:32206 Avg QP:17.70 size: 23606
x264 [info]: frame B:136892 Avg QP:19.14 size: 9622
x264 [info]: consecutive B-frames: 0.9% 1.3% 4.6% 13.1% 20.7% 36.3% 13.7% 2.7% 2.0% 2.3% 0.6% 0.3% 0.9% 0.3% 0.1% 0.1% 0.0%
-----
Общее
Уникальный идентификатор : 189912992706322258335818355606387332388 (0x8EDFE9756EC2529CB58DB19D4DC69524)
Полное имя : E:\Volaverunt.1999.DVDRip-AVC.ExKinoRay.mkv
Формат : Matroska
Версия формата : Version 2
Размер файла : 2,34 Гбайт
Продолжительность : 1 ч. 53 м.
Общий поток : 2950 Кбит/сек
Дата кодирования : UTC 2017-02-23 00:42:00
Программа кодирования : mkvmerge v7.8.0 ('River Man') 32bit built on Apr 3 2015 12:11:22
Библиотека кодирования : libebml v1.3.1 + libmatroska v1.4.2

Видео
Идентификатор : 1
Формат : AVC
Формат/Информация : Advanced Video Codec
Профиль формата : High@L4.1
Параметр CABAC формата : Да
Параметр ReFrames формата : 14 кадров
Идентификатор кодека : V_MPEG4/ISO/AVC
Продолжительность : 1 ч. 53 м.
Битрейт : 2500 Кбит/сек
Ширина : 716 пикселей
Высота : 434 пикселя
Соотношение сторон : 2,35:1
Режим частоты кадров : Постоянный
Частота кадров : 25,000 кадров/сек
Цветовое пространство : YUV
Субдискретизация насыщенности : 4:2:0
Битовая глубина : 8 бит
Тип развёртки : Прогрессивная
Бит/(Пиксели*Кадры) : 0.322
Размер потока : 1,93 Гбайт (83%)
Библиотека кодирования : x264 core 148 r2638 7599210
Настройки программы : cabac=1 / ref=14 / deblock=1:-2:-2 / analyse=0x3:0x133 / me=umh / subme=10 / psy=1 / psy_rd=1.05:0.15 / mixed_ref=1 / me_range=32 / chroma_me=1 / trellis=2 / 8x8dct=1 / cqm=0 / deadzone=21,11 / fast_pskip=0 / chroma_qp_offset=-3 / threads=4 / lookahead_threads=1 / sliced_threads=0 / nr=0 / decimate=0 / interlaced=0 / bluray_compat=0 / constrained_intra=0 / bframes=16 / b_pyramid=2 / b_adapt=2 / b_bias=0 / direct=3 / weightb=1 / open_gop=0 / weightp=2 / keyint=250 / keyint_min=25 / scenecut=40 / intra_refresh=0 / rc=2pass / mbtree=0 / bitrate=2500 / ratetol=1.0 / qcomp=0.60 / qpmin=0 / qpmax=69 / qpstep=4 / cplxblur=20.0 / qblur=0.5 / ip_ratio=1.40 / pb_ratio=1.30 / aq=1:1.00
Язык : English
Default : Да
Forced : Нет
Цветовой диапазон : Limited
Основные цвета : BT.601 NTSC
Характеристики трансфера : BT.601
Коэффициенты матрицы : BT.601

Аудио
Идентификатор : 2
Формат : AC-3
Формат/Информация : Audio Coding 3
Расширение режима : CM (complete main)
Параметр Endianness формата : Big
Идентификатор кодека : A_AC3
Продолжительность : 1 ч. 53 м.
Вид битрейта : Постоянный
Битрейт : 448 Кбит/сек
Каналы : 6 каналов
Расположение каналов : Front: L C R, Side: L R, LFE
Частота : 48,0 КГц
Частота кадров : 31,250 кадров/сек (1536 spf)
Метод сжатия : С потерями
Размер потока : 363 Мбайт (15%)
Default : Да
Forced : Нет

pb.wtf



Скачать Обнаженная Маха через торрент http://s010.radikal.ru/i313/1702/ae/39cbd3fe6e24.jpg Скачать фильм Обнаженная Маха через торрент бесплантно в хорошем качестве Описание: Июль 1802 года. Блистательная эпоха в истории Испании. Богатая, красивая любовница самых влиятельных людей своего времени донья ... 7 10 3
Торрент: Зарегистрирован [2017-02-23 07:03] · скачан: 5 раз
Статус: √ проверено
Размер: 2.34 GB
Как cкачать? Как скачать Обнаженная Маха через торрент | qTorrent

% Раздел Тема Автор DL S | L
Фильмы до 2000 г. [ 1.45 GB ] Обнаженная Маха / Volaverunt [1999 DVDRip] VO от ExKinoRay dumbia Скачать
1 | 0


>> Регистрируемся здесь <<






Отзывы и комментарии о схеме читаем и пишем здесь: ---> Отзывы и комментарии о схеме

Новые благодарочки в телеграм довольных пользователей:
скриншот   скриншот   скриншот   скриншот   скриншот
    Дорогой пользователь! Огромная просьба, поблагодарите релизера, оцените раздачу и оставьте свои комментарий, если Вы скачали Обнаженная Маха через торрент бесплатно! Внесите свою лепту в развитие PiratBit!
    Комментировать посты могут только пользователи прошедшие не сложную регистрацию
    Показать сообщения:    

    Обнаженная Маха через торрент
    Скачать бесплатно Обнаженная Маха
    Обнаженная Маха скачать торрент
    Обнаженная Маха смотреть онлайн
    Cкачать фильм Обнаженная Маха бесплатно
    Обнаженная Маха скачать торрент в хорошем качестве
    Обнаженная Маха смотреть онлайн бесплатно в хорошем качестве


    Вы не можете начинать темы
    Вы не можете отвечать на сообщения
    Вы не можете редактировать свои сообщения
    Вы не можете удалять свои сообщения
    Вы не можете голосовать в опросах
    Вы не можете прикреплять файлы к сообщениям
    Вы можете скачивать файлы