Ссылка на приватное зеркало нашего сайта всего за 1$. Внимание количество ограничено!!!

2 сезон

iTunes

1 сезон

1

iTunes

iTunes

iTunes

1 сезон

RePack

30

ИГРА 18+

pack

ВАЖНО

!!Акция!!

Alien_RageХит недели

RePack

MK11
pack

Забери бонус

RePack

jed

!!Акция!!

Alien_Rage

RePack

fifa19

RePack

Assassins Creed: Odyssey

RePack

NEED FOR SPEED™ PAYBACK

4 сезон

9 сезон

Бесстыжие 9 сезон

Все сериалы

все сериалы на PB.wtf

RePack

FAR CRY 5
  

По соображениям совести / Hacksaw Ridge (Мэл Гибсон) [2016, драма, военный, история, BDRip 1080p] Дубляж - [Лицензия / iTunes] pb.wtf

По соображениям совести через торрент pb.wtf

Размер: 14.34 GB | Добавлен: 3 года 7 мес. назад | Торрент скачан:1490 раз
Скачать  

23-02-2017 20:41 По соображениям совести Скачать торрент  


По соображениям совести / Hacksaw Ridge
««Основано на реальной истории»»

ИНФОРМАЦИЯ:
Год выпуска:2016
Страна: Австралия, США
Жанр: драма, военный, история
Продолжительность: 02:19:19
Перевод: Дубляж - [Лицензия / iTunes]
Режиссер: Мэл Гибсон

В Ролях:


Эндрю Гарфилд (Desmond Doss), Сэм Уортингтон (Captain Glover), Тереза Палмер (Dorothy Schutte), Люк Брейси (Smitty Ryker), Винс Вон (Sgt Howell), Хьюго Уивинг (Tom Doss), Рэйчел Гриффитс (Bertha Doss), Натаниэль Бузолич (Harold «Hal» Doss), Ричард Роксбург (Colonel Stelzer), Фирэсс Дирани (Vito Rinnelli), Ричард Пирос (Teach), Джейкоб Уорнер (James Pinnick)

ОПИСАНИЕ:
Медик американской армии времён Второй мировой войны Дезмонд Досс, который служил во время битвы за Окинаву, отказывается убивать людей и становится первым идейным уклонистом в американской истории, удостоенным Медали Почёта.

  • Мировая премьера:4 сентября 2016

    ТЕХ.ДАННЫЕ:
    Качество: BDRip 1080p
    Формат: MKV
    Видео: AVC, MPEG-4 AVC, 13.7 Кбит/с, 1920x802, 23,976 fps
    Аудио №1: русский 48 kHz / C3, 6 ch, 384 Кбит/с||
    Аудио №2: английский 48 kHz / AC3, 6 ch, 640 Кбит/с)
    Навигация по главам: есть
    Субтитры: Русские (Forced, full), английские


    Общее
    Уникальный идентификатор : 253568005810353092476364690889626614065 (0xBEC36BE994098D38A842F88A2173F931)
    Полное имя : W:\Торенты\Hacksaw.Ridge.2016.D.BDRip.1080p.ExKinoRay.mkv
    Формат : Matroska
    Версия формата : Version 4 / Version 2
    Размер файла : 14,3 Гбайт
    Продолжительность : 2 ч. 19 м.
    Общий поток : 14,7 Мбит/сек
    Дата кодирования : UTC 2017-02-23 20:03:35
    Программа кодирования : mkvmerge v8.3.0 ('Over the Horizon') 64bit
    Библиотека кодирования : libebml v1.3.1 + libmatroska v1.4.2

    Видео
    Идентификатор : 1
    Формат : AVC
    Формат/Информация : Advanced Video Codec
    Профиль формата : High@L4.1
    Параметр CABAC формата : Да
    Параметр ReFrames формата : 5 кадров
    Идентификатор кодека : V_MPEG4/ISO/AVC
    Продолжительность : 2 ч. 19 м.
    Битрейт : 13,7 Мбит/сек
    Ширина : 1920 пикселей
    Высота : 802 пикселя
    Соотношение сторон : 2,40:1
    Режим частоты кадров : Постоянный
    Частота кадров : 23,976 (24000/1001) кадра/сек
    Цветовое пространство : YUV
    Субдискретизация насыщенности : 4:2:0
    Битовая глубина : 8 бит
    Тип развёртки : Прогрессивная
    Бит/(Пиксели*Кадры) : 0.372
    Размер потока : 13,1 Гбайт (91%)
    Библиотека кодирования : x264 core 129 r2245 bc13772
    Настройки программы : cabac=1 / ref=5 / deblock=1:-3:-3 / analyse=0x3:0x133 / me=umh / subme=11 / psy=1 / psy_rd=1.05:0.10 / mixed_ref=1 / me_range=64 / chroma_me=1 / trellis=2 / 8x8dct=1 / cqm=0 / deadzone=21,11 / fast_pskip=0 / chroma_qp_offset=-3 / threads=12 / lookahead_threads=2 / sliced_threads=0 / nr=0 / decimate=1 / interlaced=0 / bluray_compat=0 / constrained_intra=0 / bframes=8 / b_pyramid=2 / b_adapt=2 / b_bias=0 / direct=3 / weightb=1 / open_gop=0 / weightp=2 / keyint=250 / keyint_min=23 / scenecut=40 / intra_refresh=0 / rc_lookahead=60 / rc=2pass / mbtree=1 / bitrate=13742 / ratetol=1.0 / qcomp=0.60 / qpmin=0 / qpmax=69 / qpstep=4 / cplxblur=20.0 / qblur=0.5 / vbv_maxrate=40000 / vbv_bufsize=30000 / nal_hrd=none / ip_ratio=1.40 / aq=1:0.80
    Язык : English
    Default : Да
    Forced : Нет

    Аудио #1
    Идентификатор : 2
    Формат : AC-3
    Формат/Информация : Audio Coding 3
    Расширение режима : CM (complete main)
    Параметр Endianness формата : Big
    Идентификатор кодека : A_AC3
    Продолжительность : 2 ч. 19 м.
    Вид битрейта : Постоянный
    Битрейт : 384 Кбит/сек
    Каналы : 6 каналов
    Расположение каналов : Front: L C R, Side: L R, LFE
    Частота : 48,0 КГц
    Частота кадров : 31,250 кадров/сек (1536 spf)
    Битовая глубина : 16 бит
    Метод сжатия : С потерями
    Размер потока : 383 Мбайт (3%)
    Заголовок : iTunes
    Язык : Russian
    Default : Да
    Forced : Нет

    Аудио #2
    Идентификатор : 3
    Формат : AC-3
    Формат/Информация : Audio Coding 3
    Расширение режима : CM (complete main)
    Параметр Endianness формата : Big
    Идентификатор кодека : A_AC3
    Продолжительность : 2 ч. 19 м.
    Вид битрейта : Постоянный
    Битрейт : 640 Кбит/сек
    Каналы : 6 каналов
    Расположение каналов : Front: L C R, Side: L R, LFE
    Частота : 48,0 КГц
    Частота кадров : 31,250 кадров/сек (1536 spf)
    Битовая глубина : 16 бит
    Метод сжатия : С потерями
    Размер потока : 638 Мбайт (4%)
    Заголовок : Original
    Язык : English
    Default : Нет
    Forced : Нет

    Текст #1
    Идентификатор : 4
    Формат : UTF-8
    Идентификатор кодека : S_TEXT/UTF8
    Идентификатор кодека/Информация : UTF-8 Plain Text
    Заголовок : Forced [iTunes]
    Язык : Russian
    Default : Да
    Forced : Нет

    Текст #2
    Идентификатор : 5
    Формат : UTF-8
    Идентификатор кодека : S_TEXT/UTF8
    Идентификатор кодека/Информация : UTF-8 Plain Text
    Заголовок : Full
    Язык : Russian
    Default : Нет
    Forced : Нет

    Текст #3
    Идентификатор : 6
    Формат : UTF-8
    Идентификатор кодека : S_TEXT/UTF8
    Идентификатор кодека/Информация : UTF-8 Plain Text
    Заголовок : Full
    Язык : English
    Default : Нет
    Forced : Нет

    Текст #4
    Идентификатор : 7
    Формат : UTF-8
    Идентификатор кодека : S_TEXT/UTF8
    Идентификатор кодека/Информация : UTF-8 Plain Text
    Заголовок : SDH
    Язык : English
    Default : Нет
    Forced : Нет

    Меню
    00:00:00.000 : en:00:00:00.000
    00:09:18.766 : en:00:09:18.766
    00:18:41.996 : en:00:18:41.996
    00:26:34.510 : en:00:26:34.510
    00:33:00.562 : en:00:33:00.562
    00:40:04.152 : en:00:40:04.152
    00:50:07.212 : en:00:50:07.212
    00:57:01.543 : en:00:57:01.543
    01:04:21.649 : en:01:04:21.649
    01:17:50.207 : en:01:17:50.207
    01:23:58.700 : en:01:23:58.700
    01:31:21.726 : en:01:31:21.726
    01:39:02.812 : en:01:39:02.812
    01:46:07.569 : en:01:46:07.569
    01:59:48.306 : en:01:59:48.306
    02:07:13.292 : en:02:07:13.292
    Скриншоты:

    © Оформление by .::Ворон::.
    pb.wtf



  • Скачать По соображениям совести через торрент http://i91.fastpic.ru/big/2017/0223/2a/7a7b68ed3e25acc082c599158102b52a.png Скачать фильм По соображениям совести через торрент бесплантно в хорошем качестве Е:Медик американской армии времён Второй мировой войны Дезмонд Досс, который служил во время битвы за Окинаву, отказывается убивать людей и ... 9.9 10 29
    Info! Золотая раздача, скачанное не засчитывается.
    Торрент: Зарегистрирован [2017-02-23 20:41] · скачан: 1 490 раз
    Статус: √ проверено
    Размер: 14.34 GB
    Как cкачать? Как скачать По соображениям совести через торрент | qTorrent

    % Раздел Тема Автор DL S | L
    Ultra HD (UHD: 2K, 4K, 8K) — видео сверхвысокой чёткости [ 79.26 GB ] По соображениям совести / Hacksaw Ridge [2016 военный история UHD BDRemux 2160p] + 3xAVO sheker187 Скачать
    1 | 0
    Ultra HD (UHD: 2K, 4K, 8K) — видео сверхвысокой чёткости [ 70.03 GB ] По соображениям совести / Hacksaw Ridge [2016 военный история UHD BDRemux 2160p] DUB [] bober100 Скачать
    2 | 0
    Фильмы с авторской озвучкой [ 2.17 GB ] По соображениям совести / Hacksaw Ridge [2016 военный биография BDRip-AVC от _denis_100 | NNNB] AVO + Sub _denis_100 Скачать
    2 | 0
    Фильмы (Blu-ray, BD-Remux, HDDVD) [ 40.74 GB ] По соображениям совести / Hacksaw Ridge [2016 военный история Blu-ray 1080p] bober100 Скачать
    1 | 0
    Фильмы с авторской озвучкой [ 2.18 GB ] По соображениям совести / Hacksaw Ridge [2016 военный биография история HDRip] [AVO] killermax2013 Скачать
    2 | 0
    Фильмы 2016 [DVDrip, WEB-DLRip, HDrip] (DUB, MVO) [ 2.12 GB ] По соображениям совести / Hacksaw Ridge [2016 военный история BDRip] - Twi7ter Скачать
    1 | 0
    Фильмы 2016 [DVDrip, WEB-DLRip, HDrip] (DUB, MVO) [ 1.46 GB ] По соображениям совести / Hacksaw Ridge [2016 военный история BDRip] - Twi7ter Скачать
    1 | 0

    28-11-2019 20:33  

    Отключить всю рекламу на сайте

      Дорогой пользователь! Огромная просьба, поблагодарите релизера, оцените раздачу и оставьте свои комментарий, если Вы скачали По соображениям совести через торрент бесплатно! Внесите свою лепту в развитие PiratBit!
      Комментировать посты могут только пользователи прошедшие не сложную регистрацию
      Показать сообщения:    

      По соображениям совести через торрент
      Скачать бесплатно По соображениям совести
      По соображениям совести скачать торрент
      По соображениям совести смотреть онлайн
      Cкачать фильм По соображениям совести бесплатно
      По соображениям совести скачать торрент в хорошем качестве
      По соображениям совести смотреть онлайн бесплатно в хорошем качестве


      Вы не можете начинать темы
      Вы не можете отвечать на сообщения
      Вы не можете редактировать свои сообщения
      Вы не можете удалять свои сообщения
      Вы не можете голосовать в опросах
      Вы не можете прикреплять файлы к сообщениям
      Вы можете скачивать файлы