Ссылка на приватное зеркало нашего сайта всего за 1$. Внимание количество ограничено!!!

2 сезон

iTunes

1 сезон

1

2 сезон

2 сезон

iTunes

1 сезон

RePack

30

Ultimate

ВАЖНО

ИГРА 18+

pack

RePack

MK11
pack

Забери бонус

RePack

jed

!!Акция!!

Alien_Rage

RePack

fifa19

RePack

Assassins Creed: Odyssey

RePack

NEED FOR SPEED™ PAYBACK

4 сезон

9 сезон

Бесстыжие 9 сезон

Все сериалы

все сериалы на PB.wtf

RePack

FAR CRY 5
  

Сотня / The 100 / Сезон: 3 / Серии: 1-16 из 16 (Дин Уайт, Эд Фрэйман, Майрзи Алмас) [2016, фантастика, драма, детектив, WEB-DLRip] MVO [BaibaKo] pb.wtf

Сотня через торрент pb.wtf

Размер: 8.93 GB | Добавлен: 3 года 9 мес. назад | Торрент скачан:5 раз
Скачать  

24-02-2017 00:57 Сотня Скачать торрент  

Сотня / The 100Год выпуска: 2016
Страна: США
Жанр: фантастика, драма, детектив
Всего серий: 16
Продолжительность: 16 x ~ 00:45:00
Перевод: Профессиональный многоголосый - [BaibaKo]
Субтитры: отсутствуют

Режиссер: Дин Уайт, Эд Фрэйман, Майрзи Алмас

rating

В ролях:

Элиза Тейлор, Пейдж Турко, Томас МакДонелл, Боб Морли, Мари Авгеропулос, Девон Бостик, Линдси Морган, Рики Уиттл, Кристофер Ларкин, Исайя Вашингтон, Генри Иэн Кьюсик, Рэймонд Дж. Бэрри, Ричард Хэрмон, Джозеф Гатт, Ив Харлоу, Дичен Лакмэн, Адина Портер, Кинэн Трэйси, Джонни Витуорт, Алисия Дебнем Кери, Кендалл Кросс, Алекс Паунович, Сарван Бадеша, Джарод Джозеф и др.

Описание:

Экранизация одноименного романа Касс Морган. События в сериале начинают разворачиваться по прошествии девяносто семи лет после того как всю цивилизацию уничтожила страшная атомная война. Высоко в космосе на орбите Земли летает большой космический корабль, именно здесь находятся те, кто выжил после страшной катастрофы. Они единственные кто пережил этот ужасный катаклизм который устроило человечество. Именно с этого последнего пристанища людей на Землю отправляют космический челнок на котором находятся сто малолетних преступников...

Качество: WEB-DLRip
Формат: AVI
Видео кодек: XviD
Аудио кодек: MP3

Видео: 720x400 (1.80:1), 23.976 fps, XviD build 63 ~1500 kbps avg, 0.22 bit/pixel
Аудио#1: Rus: 48 kHz, MPEG Layer 3, 2 ch, ~192.00 kbps avg (Baibako)
Аудио#2: Eng: 48 kHz, MPEG Layer 3, 2 ch, ~192.00 kbps avg

Общее
Полное имя : C:\The100 (Season 03) BaibaKo\The100.s03e01.WEB-DLRip.XviD.Rus.Eng.BaibaKo.avi
Формат : AVI
Формат/Информация : Audio Video Interleave
Размер файла : 574 Мбайт
Продолжительность : 42 м. 27 с.
Общий поток : 1891 Кбит/сек
Программа кодирования : VirtualDubMod 1.5.10.3 | www.virtualdub-fr.org || (build 2550/release)
Библиотека кодирования : VirtualDubMod build 2550/release

Видео
Идентификатор : 0
Формат : MPEG-4 Visual
Профиль формата : Advanced Simple@L5
Параметр BVOP формата : 2
Параметр QPel формата : Нет
Параметр GMC формата : Без точки перехода
Параметр матрицы формата : Default (H.263)
Идентификатор кодека : XVID
Идентификатор кодека/Подсказка : XviD
Продолжительность : 42 м. 27 с.
Битрейт : 1493 Кбит/сек
Ширина : 720 пикселей
Высота : 400 пикселей
Соотношение сторон : 16:9
Частота кадров : 23,976 (24000/1001) кадра/сек
Цветовое пространство : YUV
Субдискретизация насыщенности : 4:2:0
Битовая глубина : 8 бит
Тип развёртки : Прогрессивная
Метод сжатия : С потерями
Бит/(Пиксели*Кадры) : 0.216
Размер потока : 453 Мбайт (79%)
Библиотека кодирования : XviD 65

Аудио #1
Идентификатор : 1
Формат : MPEG Audio
Версия формата : Version 1
Профиль формата : Layer 3
Режим : Joint stereo
Расширение режима : MS Stereo
Идентификатор кодека : 55
Идентификатор кодека/Подсказка : MP3
Продолжительность : 42 м. 27 с.
Вид битрейта : Постоянный
Битрейт : 192 Кбит/сек
Каналы : 2 канала
Частота : 48,0 КГц
Метод сжатия : С потерями
Задержка видео : 19 мс.
Размер потока : 58,3 Мбайт (10%)
Выравнивание : Разделение по промежуткам
Продолжительность промежутка : 42 мс. (1,00 видеокадр)
Время предзагрузки промежутка : 500 мс.
Библиотека кодирования : LAME3.99.5

Аудио #2
Идентификатор : 2
Формат : MPEG Audio
Версия формата : Version 1
Профиль формата : Layer 3
Режим : Joint stereo
Расширение режима : MS Stereo
Идентификатор кодека : 55
Идентификатор кодека/Подсказка : MP3
Продолжительность : 42 м. 27 с.
Вид битрейта : Постоянный
Битрейт : 192 Кбит/сек
Каналы : 2 канала
Частота : 48,0 КГц
Метод сжатия : С потерями
Задержка видео : 19 мс.
Размер потока : 58,3 Мбайт (10%)
Выравнивание : Разделение по промежуткам
Продолжительность промежутка : 42 мс. (1,00 видеокадр)
Время предзагрузки промежутка : 500 мс.
Библиотека кодирования : LAME3.99.5ЄЄЄЄЄЄЄЄЄЄ
скриншот   скриншот   скриншот   скриншот  
pb.wtf



Скачать Сотня через торрент http://pic1.kartinco.top/images/11/o47f9.jpg Скачать фильм Сотня через торрент бесплантно в хорошем качестве Описание: Экранизация одноименного романа Касс Морган. События в сериале начинают разворачиваться по прошествии девяносто семи лет после ... 10 10 2
Торрент: Зарегистрирован [2017-02-24 00:57] · скачан: 5 раз
Статус: √ проверено
Размер: 8.93 GB
Как cкачать? Как скачать Сотня через торрент | qTorrent

% Раздел Тема Автор DL S | L
Зарубежные сериалы [ 29.04 GB ] Сотня / The 100 / Сезоны: 1-3 / Серии: 1-45 из 45 [2014-2016 BDRip] MVO God_Slayer Скачать
1 | 0
R.G.Resident - Сериалы, Видео [ 18.09 GB ] Сотня / The 100 Сезон: 3 / Серии: 1 - 16 из 16 [2016 BDRip-AVC MVO AlexFilm] R.G.Resident schultz Скачать
1 | 0
Зарубежные сериалы [ 7.82 GB ] Сотня / The 100 / Сезон: 3 / Серии 1-16 из 16 [2016 WEB-DLRip] MVO [LostFilm] GEKADOL Скачать
1 | 0
Зарубежные сериалы [ 28.39 GB ] Сотня / The 100 / Сезон: 3 / Серии 1-16 из 16 [2016 WEB-DLRip 1080р] MVO [LostFilm] GEKADOL Скачать
1 | 0
Зарубежные сериалы [ 27.7 GB ] Сотня / The 100 / Сезон: 3 / Серии 1-16 из 16 [2016 WEB-DL 1080p] MVO [BaibaKo] GEKADOL Скачать
1 | 0
Зарубежные сериалы [ 13.44 GB ] Сотня / The 100 / Сезон: 3 / Серии 1-16 из 16 [2016 WEB-DLRip-AVC] MVO [BaibaKo] GEKADOL Скачать
1 | 0
Зарубежные сериалы [ 4.91 GB ] Сотня / 100 / The 100 [2016 WEB-DLRip] MVO [AlexFilm] nikola120 Скачать
1 | 0

28-11-2019 20:33  

Отключить всю рекламу на сайте

    Дорогой пользователь! Огромная просьба, поблагодарите релизера, оцените раздачу и оставьте свои комментарий, если Вы скачали Сотня через торрент бесплатно! Внесите свою лепту в развитие PiratBit!
    Комментировать посты могут только пользователи прошедшие не сложную регистрацию
    Показать сообщения:    

    Сотня через торрент
    Скачать бесплатно Сотня
    Сотня скачать торрент
    Сотня смотреть онлайн
    Cкачать фильм Сотня бесплатно
    Сотня скачать торрент в хорошем качестве
    Сотня смотреть онлайн бесплатно в хорошем качестве


    Вы не можете начинать темы
    Вы не можете отвечать на сообщения
    Вы не можете редактировать свои сообщения
    Вы не можете удалять свои сообщения
    Вы не можете голосовать в опросах
    Вы не можете прикреплять файлы к сообщениям
    Вы можете скачивать файлы