2 сезон

iTunes

MVO

1

2 сезон

iTunes

iTunes

1 сезон

RePack

30

Новинка

ВАЖНО

ИГРА 18+

pack

RePack

MK11
pack

Легкие деньги

RePack

jed

RePack

fifa19

RePack

RDR2

RePack

NEED FOR SPEED™ PAYBACK

4 сезон

9 сезон

Бесстыжие 9 сезон

Все сериалы

все сериалы на PB.wtf

RePack

FAR CRY 5

Anonymous, доброй ночи, мы не успеваем собрать деньги на оплату серверов за декабрь и январь, помогите нам пожалуйста в это трудное время. В качестве благодарности мы отключим Вам всю рекламу на сайте (укажите свой ник в строку Ваше имя)!

×
  
Magnet ссылка

Пассажиры / Passengers (Мортен Тильдум) [2016 г., Фантастика, драма, мелодрама, приключения, WEB-DLRip 720p / 60fps] Дубляж - [Лицензия / iTunes] pb.wtf

Пассажиры через торрент pb.wtf

Размер: 6.81 GB | Добавлен: 3 года 11 мес. назад | Торрент скачан:1565 раз
Скачать  

24-02-2017 12:29 Пассажиры Скачать торрент  

Пассажиры / Passengers
Год выпуска: 2016
Страна: США, Columbia Pictures, Company Films, LStar Capital, Original Film
Жанр: Фантастика, драма, мелодрама, приключения
Продолжительность: 01:56:09
Перевод: Дубляж iTunes

Режиссер: Мортен Тильдум

rating

В ролях: Дженнифер Лоуренс, Крис Прэтт, Майкл Шин, Лоренс Фишбёрн, Энди Гарсиа, Винс Фостер, Кара Мишель Уайлдер, Конор Брофи, Джули Серда, Аврора Перрино

Описание: Космический корабль с 5,000 пассажиров на борту, погруженных на время полета в искусственный сон, держит курс на планету, которая станет для них новым домом. Всё идет по плану, но из-за сбоя системы двое пассажиров неожиданно просыпаются и понимают, что до конечного пункта путешествия — 90 лет пути, и им суждено остаток жизни провести вдвоем в роскошных интерьерах корабля, оснащенного по последнему слову техники. Постепенно Джима и Аврору начинает непреодолимо тянуть друг к другу, но корабль попадает в беду, и теперь в их руках — жизнь и судьба всех обитателей корабля.

Качество: WEB-DLRip 720p
Формат: MKV
Видео кодек: H.264
Аудио кодек: AC3
Видео: 1280x528 (2.40:1), 59.94fps, AVC MPEG-4 (H.264), High@L4.2 ~8000 kbps, 0.197 bit/pixel
Аудио#1: 48 kHz, AC3 Dolby Digital, 6 ch, ~384 kbps

Format : Matroska
Format version : Version 4 / Version 2
File size : 6.81 GiB
Duration : 1 h 56 min
Overall bit rate : 8 389 kb/s
Encoded date : UTC 2017-02-24 07:40:16
Writing application : mkvmerge v9.8.0 ('Kuglblids') 64bit
Writing library : libebml v1.3.4 + libmatroska v1.4.5

Video
ID : 1
Format : AVC
Format/Info : Advanced Video Codec
Format profile : High 10@L4.2
Format settings, CABAC : Yes
Format settings, ReFrames : 9 frames
Codec ID : V_MPEG4/ISO/AVC
Duration : 1 h 56 min
Bit rate : 8 000 kb/s
Width : 1 280 pixels
Height : 528 pixels
Display aspect ratio : 2.40:1
Frame rate mode : Constant
Frame rate : 59.940 (60000/1001) FPS
Original frame rate : 59.940 (59940/1000) FPS
Color space : YUV
Chroma subsampling : 4:2:0
Bit depth : 10 bits
Scan type : Progressive
Bits/(Pixel*Frame) : 0.197
Stream size : 6.49 GiB (95%)
Writing library : x264 core 146 r2538 121396c
Encoding settings : cabac=1 / ref=9 / deblock=1:0:0 / analyse=0x3:0x113 / me=umh / subme=9 / psy=1 / psy_rd=1.00:0.10 / mixed_ref=1 / me_range=32 / chroma_me=1 / trellis=2 / 8x8dct=1 / cqm=0 / deadzone=21,11 / fast_pskip=0 / chroma_qp_offset=-3 / threads=6 / lookahead_threads=1 / sliced_threads=0 / nr=0 / decimate=1 / interlaced=0 / bluray_compat=0 / constrained_intra=0 / bframes=16 / b_pyramid=2 / b_adapt=2 / b_bias=0 / direct=3 / weightb=1 / open_gop=0 / weightp=2 / keyint=250 / keyint_min=25 / scenecut=40 / intra_refresh=0 / rc_lookahead=40 / rc=2pass / mbtree=1 / bitrate=8000 / ratetol=1.0 / qcomp=0.60 / qpmin=0 / qpmax=81 / qpstep=4 / cplxblur=20.0 / qblur=0.5 / vbv_maxrate=14000 / vbv_bufsize=14000 / nal_hrd=none / filler=0 / ip_ratio=1.40 / aq=1:1.00
Default : Yes
Forced : No

Audio
ID : 2
Format : AC-3
Format/Info : Audio Coding 3
Mode extension : CM (complete main)
Format settings, Endianness : Big
Codec ID : A_AC3
Duration : 1 h 56 min
Bit rate mode : Constant
Bit rate : 384 kb/s
Channel(s) : 6 channels
Channel positions : Front: L C R, Side: L R, LFE
Sampling rate : 48.0 kHz
Frame rate : 31.250 FPS (1536 spf)
Bit depth : 16 bits
Compression mode : Lossy
Stream size : 319 MiB (5%)
Default : Yes
Forced : No

pb.wtf



Скачать Пассажиры через торрент https://pic1.kartinco.top/images/11/9p8jx.jpg Скачать фильм Пассажиры через торрент бесплантно в хорошем качестве Описание: Космический корабль с 5,000 пассажиров на борту, погруженных на время полета в искусственный сон, держит курс на планету, которая ... 9.7 10 47
Info! Золотая раздача, скачанное не засчитывается.
Торрент: Зарегистрирован [2017-02-24 12:29] · скачан: 1 565 раз
Статус: √ проверено
Размер: 6.81 GB
Как cкачать? Как скачать Пассажиры через торрент | UTorrent

% Раздел Тема Автор DL S | L
Фильмы [HD 720p, 1080p] (Хороший звук DUB, MVO) [ 5.93 GB ] Пассажиры / Passengers [2016 BDRip 1080p HEVC ] Мичман37 Скачать
1 | 0
Фильмы 2016 [DVDrip, WEB-DLRip, HDrip] (DUB, MVO) [ 2.18 GB ] Пассажиры / Passengers [2016 BDRip] - [] Twi7ter Скачать
3 | 0
Фильмы 2016 [DVDrip, WEB-DLRip, HDrip] (DUB, MVO) [ 1.46 GB ] Пассажиры / Passengers [2016 BDRip] - [] Twi7ter Скачать
1 | 0
T Фильмы (мультфильмы) cо спонсором показа (Новинки AVI/MKV) [ 1.24 GB ] Девятый пассажир / The Ninth Passenger [2018 DVDRip Любительский ] oleg8 Скачать
1 | 0
Ultra HD (UHD: 2K, 4K, 8K) — видео сверхвысокой чёткости [ 36.31 GB ] Пассажиры / Passengers [2016 UHD BDRip 2160p SDR] DUB + AVO [Ю.Сербин] sheker187 Скачать
1 | 0
T Фильмы (мультфильмы) cо спонсором показа (Новинки AVI/MKV) [ 3.63 GB ] Пятый Пассажир / 5th Passenger [2018 WEB-DL 1080p] MVO [@MUZOBOZ@] bober100 Скачать
1 | 0
T Фильмы (мультфильмы) cо спонсором показа (Новинки AVI/MKV) [ 3.44 GB ] Пятый Пассажир / 5th Passenger [2018 WEB-DL 720p] MVO [@MUZOBOZ@] bober100 Скачать
1 | 0

28-11-2019 20:33  

Отключить всю рекламу на сайте

24-02-2017 13:14 Пассажиры Скачать торрент  

посмотрел недавно, на редкость фиговенький фильм, скучный предсказуемый, я ожидал чего то другого, но не этого...pb.wtf



25-02-2017 11:40 Пассажиры Скачать торрент  

Классный кинчикpb.wtf



26-03-2017 11:46 Пассажиры Скачать торрент  

DavidLynch писал(а):

посмотрел недавно, на редкость фиговенький фильм, скучный предсказуемый, я ожидал чего то другого, но не этого.

DavidLynch писал(а):

посмотрел недавно, на редкость фиговенький фильм, скучный предсказуемый, я ожидал чего то другого, но не этого...

Я бы так не сказал, кино отличноеpb.wtf



    Дорогой пользователь! Огромная просьба, поблагодарите релизера, оцените раздачу и оставьте свои комментарий, если Вы скачали Пассажиры через торрент бесплатно! Внесите свою лепту в развитие PiratBit!
    Комментировать посты могут только пользователи прошедшие не сложную регистрацию
    Показать сообщения:    

    Пассажиры через торрент
    Скачать бесплатно Пассажиры
    Пассажиры скачать торрент
    Пассажиры смотреть онлайн
    Cкачать фильм Пассажиры бесплатно
    Пассажиры скачать торрент в хорошем качестве
    Пассажиры смотреть онлайн бесплатно в хорошем качестве


    Вы не можете начинать темы
    Вы не можете отвечать на сообщения
    Вы не можете редактировать свои сообщения
    Вы не можете удалять свои сообщения
    Вы не можете голосовать в опросах
    Вы не можете прикреплять файлы к сообщениям
    Вы можете скачивать файлы