2 сезон

iTunes

1 сезон

1

iTunes

iTunes

iTunes

1 сезон

RePack

30

ИГРА 18+

pack

ВАЖНО

!!Акция!!

Alien_RageХит недели

RePack

MK11
pack

Забери бонус

RePack

jed

!!Акция!!

Alien_Rage

RePack

fifa19

RePack

Assassins Creed: Odyssey

RePack

NEED FOR SPEED™ PAYBACK

4 сезон

9 сезон

Бесстыжие 9 сезон

Все сериалы

все сериалы на PB.wtf

RePack

FAR CRY 5
  

Завтрак в постель / Сезон 1 / Серии 1-4 из 4 (Сергей Краснов) [2017 г., Мелодрама, SATRip] pb.wtf

Завтрак в постель через торрент pb.wtf

Размер: 2.39 GB | Добавлен: 3 года 8 мес. назад | Торрент скачан:178 раз
Скачать  

24-02-2017 14:02 Завтрак в постель Скачать торрент  

Завтрак в постель / Сезон 1 / Серии 1-4 из 4
Год выпуска: 2017
Страна: Россия
Жанр: Мелодрама
Продолжительность: 4 х 00:45:00
Субтитры: нет

Режиссер: Сергей Краснов

В ролях: Марина Коняшкина, Алексей Демидов, Дарья Повереннова, Артем Ткаченко, Мария Пирогова, Вероника Агапова, Лиза Измайлова, Мария Ситко

Описание: Арина Волошина работает горничной в отеле. У нее за плечами неоконченное высшее по менеджменту, в мечтах - открытие своей гостиницы, а в реальности - тяжелая работа и маленькая дочка Таня, растущая без отца. Однажды в отель на бизнес-семинар съезжаются важные гости. Среди них капризная дама - бывшая балерина Ирина Штайн, а также молодой миллионер Артем Гордин, возглавляющий список самых завидных женихов страны. Арина случайно принимает Гордина за нового работника и не церемонится с ним. Артем же, давно уставший от постоянного внимания и фальшивых улыбок, захотел почувствовать себя обыкновенным человеком. Он решает подыграть Арине и не рассказывать, кто же он на самом деле...

Качество: SATRip
Формат: AVI
Видео кодек: XviD
Аудио кодек: MP3
Видео: 720x400 (1.80:1), 25 fps, XviD build 50 ~1799 kbps avg, 0.25 bit/pixel
Аудио: 48 kHz, MPEG Layer 3, 2 ch, ~128.00 kbps avg



General
Complete name : H:\релизы.торрентфайл\Zavtrak.v.postel.SATRip.[www.riperam.org]\Zavtrak.v.postel.02.SATRip.[www.riperam.org].avi
Format : AVI
Format/Info : Audio Video Interleave
File size : 606 MiB
Duration : 43mn 41s
Overall bit rate : 1 937 Kbps
Writing application : VirtualDubMod 1.5.10.3 | www.virtualdub-fr.org || (build 2550/release)
Writing library : VirtualDubMod build 2550/release

Video
ID : 0
Format : MPEG-4 Visual
Format profile : Advanced Simple@L5
Format settings, BVOP : 2
Format settings, QPel : No
Format settings, GMC : No warppoints
Format settings, Matrix : Default (H.263)
Codec ID : XVID
Codec ID/Hint : XviD
Duration : 43mn 41s
Bit rate : 1 800 Kbps
Width : 720 pixels
Height : 400 pixels
Display aspect ratio : 16:9
Frame rate : 25.000 fps
Color space : YUV
Chroma subsampling : 4:2:0
Bit depth : 8 bits
Scan type : Progressive
Compression mode : Lossy
Bits/(Pixel*Frame) : 0.250
Stream size : 563 MiB (93%)
Writing library : XviD 1.2.1 (UTC 2008-12-04)

Audio
ID : 1
Format : MPEG Audio
Format version : Version 1
Format profile : Layer 3
Mode : Joint stereo
Mode extension : MS Stereo
Codec ID : 55
Codec ID/Hint : MP3
Duration : 43mn 41s
Bit rate mode : Constant
Bit rate : 128 Kbps
Channel(s) : 2 channels
Sampling rate : 48.0 KHz
Compression mode : Lossy
Stream size : 40.0 MiB (7%)
Alignment : Aligned on interleaves
Interleave, duration : 40 ms (1.00 video frame)
Interleave, preload duration : 504 ms
Writing library : LAME3.99r
Encoding settings : -m j -V 4 -q 9 -lowpass 17 -b 128

pb.wtf



Скачать Завтрак в постель через торрент http://pic1.kartinco.top/images/11/uurim.jpg Скачать фильм Завтрак в постель через торрент бесплантно в хорошем качестве Описание: Арина Волошина работает горничной в отеле. У нее за плечами неоконченное высшее по менеджменту, в мечтах - открытие своей ... 10 10 5
Торрент: Зарегистрирован [2017-02-24 14:02] · скачан: 178 раз
Статус: √ проверено
Размер: 2.39 GB
Как cкачать? Как скачать Завтрак в постель через торрент | qTorrent

28-11-2019 20:33  

Отключить всю рекламу на сайте

    Дорогой пользователь! Огромная просьба, поблагодарите релизера, оцените раздачу и оставьте свои комментарий, если Вы скачали Завтрак в постель через торрент бесплатно! Внесите свою лепту в развитие PiratBit!
    Комментировать посты могут только пользователи прошедшие не сложную регистрацию
    Показать сообщения:    

    Завтрак в постель через торрент
    Скачать бесплатно Завтрак в постель
    Завтрак в постель скачать торрент
    Завтрак в постель смотреть онлайн
    Cкачать фильм Завтрак в постель бесплатно
    Завтрак в постель скачать торрент в хорошем качестве
    Завтрак в постель смотреть онлайн бесплатно в хорошем качестве


    Вы не можете начинать темы
    Вы не можете отвечать на сообщения
    Вы не можете редактировать свои сообщения
    Вы не можете удалять свои сообщения
    Вы не можете голосовать в опросах
    Вы не можете прикреплять файлы к сообщениям
    Вы можете скачивать файлы