Ссылка на приватное зеркало нашего сайта всего за 1$. Внимание количество ограничено!!!

2 сезон

iTunes

1 сезон

1

2 сезон

2 сезон

iTunes

1 сезон

RePack

30

Ultimate

ВАЖНО

ИГРА 18+

pack

RePack

MK11
pack

Забери бонус

RePack

jed

!!Акция!!

Alien_Rage

RePack

fifa19

RePack

Assassins Creed: Odyssey

RePack

NEED FOR SPEED™ PAYBACK

4 сезон

9 сезон

Бесстыжие 9 сезон

Все сериалы

все сериалы на PB.wtf

RePack

FAR CRY 5
  

Чувство справедливости / Equity (Мира Менон) [2016, Драма, BDRemux 1080p] от ExKinoRay / MVO [Лицензия] pb.wtf

Чувство справедливости через торрент pb.wtf

Размер: 19.23 GB | Добавлен: 3 года 9 мес. назад | Торрент скачан:3 раза
Скачать  

24-02-2017 15:12 Чувство справедливости Скачать торрент  

Информация о фильме
Название: Чувство справедливости
Оригинальное название: Equity
Год выхода: 2016
Жанр: Драма
Страна: США
Студия: Broad Street Pictures
Продолжительность: 01:40:21
Перевод: Профессиональный многоголосый (закадровый) | Лицензия
Субтитры: Русские, английские

Режиссер: Мира Менон

В ролях: Анна Ганн, Джеймс Пьюрфой, Сара Меган Томас, Алисия Райнер, Крэйг Бирко, Маргарет Колин, Нэйт Корддри, Ник Гелфусс, Кэрри Престон, Сэмюэл Рукин

О фильме:

История старшего инвестиционного банкира, которой вопреки нависшему над ней финансовому скандалу предстоит раскрыть коррупционные схемы.

rating

Качество: BDRemux 1080p
Формат: MKV
Видео: MPEG-4 AVC, 1920x1080, 24.9 Mbit/s, 23.976 fps
Аудио #01: 48 kHz, AC3, 5.1, 448 Kbps | Профессиональный многоголосый (закадровый) |
Аудио #02: 48 kHz, DTS-HD MA, 5.1, 2048 kbps | Оригинал |
General

Unique ID : 250620087965615127688757463097997455875 (0xBC8BAC5758933367BE1BA59003BAF203)

Complete name : G:VideoEquity.2016.D.BDREMUX.1080p.ExKinoRay.mkv

Format : Matroska

Format version : Version 4 / Version 2

File size : 19.2 GiB

Duration : 1 h 40 min

Overall bit rate mode : Variable

Overall bit rate : 27.4 Mb/s

Encoded date : UTC 2017-02-24 14:41:04

Writing application : mkvmerge v8.3.0 ('Over the Horizon') 64bit

Writing library : libebml v1.3.1 + libmatroska v1.4.2

Video

ID : 1

Format : AVC

Format/Info : Advanced Video Codec

Format profile : High@L4.1

Format settings, CABAC : Yes

Format settings, ReFrames : 2 frames

Codec ID : V_MPEG4/ISO/AVC

Duration : 1 h 40 min

Bit rate mode : Variable

Bit rate : 24.9 Mb/s

Width : 1 920 pixels

Height : 1 080 pixels

Display aspect ratio : 16:9

Frame rate mode : Constant

Frame rate : 23.976 (24000/1001) FPS

Color space : YUV

Chroma subsampling : 4:2:0

Bit depth : 8 bits

Scan type : Progressive

Bits/(Pixel*Frame) : 0.501

Stream size : 17.5 GiB (91%)

Language : English

Default : Yes

Forced : No

Audio #1

ID : 2

Format : AC-3

Format/Info : Audio Coding 3

Mode extension : CM (complete main)

Format settings, Endianness : Big

Codec ID : A_AC3

Duration : 1 h 40 min

Bit rate mode : Constant

Bit rate : 448 kb/s

Channel(s) : 6 channels

Channel positions : Front: L C R, Side: L R, LFE

Sampling rate : 48.0 kHz

Frame rate : 31.250 FPS (1536 spf)

Bit depth : 16 bits

Compression mode : Lossy

Delay relative to video : -8 ms

Stream size : 322 MiB (2%)

Title : Dub [license]

Language : Russian

Default : Yes

Forced : No

Audio #2

ID : 3

Format : DTS

Format/Info : Digital Theater Systems

Format profile : MA / Core

Mode : 16

Format settings, Endianness : Big

Codec ID : A_DTS

Duration : 1 h 40 min

Bit rate mode : Variable / Constant

Bit rate : 2 048 kb/s / 1 509 kb/s

Channel(s) : 6 channels

Channel positions : Front: L C R, Side: L R, LFE

Sampling rate : 48.0 kHz

Frame rate : 93.750 FPS (512 spf)

Bit depth : 16 bits

Compression mode : Lossless / Lossy

Stream size : 1.44 GiB (8%)

Title : Original

Language : English

Default : No

Forced : No

Text #1

ID : 4

Format : UTF-8

Codec ID : S_TEXT/UTF8

Codec ID/Info : UTF-8 Plain Text

Duration : 1 h 39 min

Bit rate : 94 b/s

Count of elements : 1155

Stream size : 69.2 KiB (0%)

Title : Full

Language : Russian

Default : No

Forced : No

Text #2

ID : 5

Format : UTF-8

Codec ID : S_TEXT/UTF8

Codec ID/Info : UTF-8 Plain Text

Duration : 1 h 37 min

Bit rate : 61 b/s

Count of elements : 1345

Stream size : 43.7 KiB (0%)

Title : Full

Language : English

Default : No

Forced : No

Text #3

ID : 6

Format : UTF-8

Codec ID : S_TEXT/UTF8

Codec ID/Info : UTF-8 Plain Text

Duration : 1 h 38 min

Bit rate : 65 b/s

Count of elements : 1515

Stream size : 47.3 KiB (0%)

Title : SDH

Language : English

Default : No

Forced : No

Menu

00:00:00.000 : en:Chapter 1

00:10:01.350 : en:Chapter 2

00:14:34.874 : en:Chapter 3

00:20:07.873 : en:Chapter 4

00:26:40.557 : en:Chapter 5

00:30:51.683 : en:Chapter 6

00:33:30.133 : en:Chapter 7

00:38:24.969 : en:Chapter 8

00:44:54.566 : en:Chapter 9

00:51:25.916 : en:Chapter 10

00:56:11.368 : en:Chapter 11

01:08:49.250 : en:Chapter 12

01:17:55.212 : en:Chapter 13

01:20:30.200 : en:Chapter 14

01:27:18.900 : en:Chapter 15

01:34:16.859 : en:Chapter 16
скриншот  скриншот  скриншот  
Релиз от: Автор релиза: pb.wtf



Скачать Чувство справедливости через торрент http://s019.radikal.ru/i602/1612/97/5e983fbe4d8c.jpg Скачать фильм Чувство справедливости через торрент бесплантно в хорошем качестве О фильме:История старшего инвестиционного банкира, которой вопреки нависшему над ней финансовому скандалу предстоит раскрыть коррупционные ... 10 10 4
Info! Золотая раздача, скачанное не засчитывается.
Торрент: Зарегистрирован [2017-02-24 15:12] · скачан: 3 раз
Статус: √ проверено
Размер: 19.23 GB
Как cкачать? Как скачать Чувство справедливости через торрент | qTorrent

% Раздел Тема Автор DL S | L
Фильмы 2016 [DVDrip, WEB-DLRip, HDrip] (DUB, MVO) [ 2.04 GB ] Чувство справедливости / Equity [2016 HDRip многоголосый " BD EUR"] coc900 Скачать
1 | 0

28-11-2019 20:33  

Отключить всю рекламу на сайте

    Дорогой пользователь! Огромная просьба, поблагодарите релизера, оцените раздачу и оставьте свои комментарий, если Вы скачали Чувство справедливости через торрент бесплатно! Внесите свою лепту в развитие PiratBit!
    Комментировать посты могут только пользователи прошедшие не сложную регистрацию
    Показать сообщения:    

    Чувство справедливости через торрент
    Скачать бесплатно Чувство справедливости
    Чувство справедливости скачать торрент
    Чувство справедливости смотреть онлайн
    Cкачать фильм Чувство справедливости бесплатно
    Чувство справедливости скачать торрент в хорошем качестве
    Чувство справедливости смотреть онлайн бесплатно в хорошем качестве


    Вы не можете начинать темы
    Вы не можете отвечать на сообщения
    Вы не можете редактировать свои сообщения
    Вы не можете удалять свои сообщения
    Вы не можете голосовать в опросах
    Вы не можете прикреплять файлы к сообщениям
    Вы можете скачивать файлы