Ссылка на приватное зеркало нашего сайта всего за 1$. Внимание количество ограничено!!!

2 сезон

iTunes

1 сезон

1

iTunes

iTunes

iTunes

1 сезон

RePack

30

ИГРА 18+

pack

ВАЖНО

!!Акция!!

Alien_RageХит недели

RePack

MK11
pack

Забери бонус

RePack

jed

!!Акция!!

Alien_Rage

RePack

fifa19

RePack

Assassins Creed: Odyssey

RePack

NEED FOR SPEED™ PAYBACK

4 сезон

9 сезон

Бесстыжие 9 сезон

Все сериалы

все сериалы на PB.wtf

RePack

FAR CRY 5
  

Под покровом ночи / Nocturnal Animals (Том Форд) [2016, триллер, драма, BDRip 1080p] [Dub] [Лицензия BD CEE] pb.wtf

Под покровом ночи через торрент pb.wtf

Размер: 13.63 GB | Добавлен: 3 года 7 мес. назад | Торрент скачан:386 раз
Скачать  

24-02-2017 20:39 Под покровом ночи Скачать торрент  

Под покровом ночи / Nocturnal Animals
Год выхода: 2016
Жанр: триллер, драма
Выпущено: США / Fade to Black Productions, Focus Features, Universal Pictures
Продолжительность: 01:56:32
Озвучивание: Дублированное [Лицензия BD CEE]
Субтитры: Russian (Forced, Blu-ray CEE), Russian (Blu-ray CEE), English, English (SDH)

Режиссер: Том Форд

В ролях: Эми Адамс, Джейк Джилленхол, Майкл Шеннон, Аарон Тейлор-Джонсон, Айла Фишер, Элли Бамбер, Арми Хаммер, Карл Глусман, Роберт Арамайо, Лора Линни

О фильме: У Сьюзен роскошная жизнь в Лос-Анджелесе, прекрасный муж и собственная галерея. Но однажды она получает неожиданную посылку от бывшего супруга — он хотел бы встретиться, но сначала просит прочитать его новый роман. Сьюзен не подозревает, что как только она откроет рукопись, она вернется в прошлое, которое считала надежно укрытым под покровом ночи.

Релиз --

Файл
Качество: BDRip 1080p
Формат: MKV
Видео: 1920x792 at 23.976 fps, x264@L4.1, ~14.5 Mbps avg
Аудио: 48 kHz, DTS, 3/2 (L,C,R,l,r) + LFE ch, ~768.00 kbps avg |Дубляж, Blu-ray CEE|
Аудио: 48 kHz, DTS, 3/2 (L,C,R,l,r) + LFE ch, ~1536.00 kbps avg [English]
Общее
Уникальный идентификатор : 241996937262739194674795137004135311736 (0xB60EEA2FD6353723A94E297F54C8E978)
Полное имя : Nocturnal.Animals.2016.1080p.BluRay.DTS.Rus.Eng.HDCLUB.mkv
Формат : Matroska
Версия формата : Version 2
Размер файла : 13,6 Гбайт
Продолжительность : 1 ч. 56 м.
Общий поток : 16,8 Мбит/сек
Название фильма : Nocturnal Animals (2016) - Release for HDCLUB
Дата кодирования : UTC 2017-02-24 10:37:35
Программа кодирования : mkvmerge v3.4.0 ('Rapunzel') built on May 15 2010 09:38:20
Библиотека кодирования : libebml v0.8.0 + libmatroska v0.9.0
Attachment : Yes / Yes / Yes / Yes

Видео
Идентификатор : 1
Формат : AVC
Формат/Информация : Advanced Video Codec
Профиль формата : High@L4.1
Параметр CABAC формата : Да
Параметр ReFrames формата : 5 кадров
Идентификатор кодека : V_MPEG4/ISO/AVC
Продолжительность : 1 ч. 56 м.
Битрейт : 14,2 Мбит/сек
Ширина : 1920 пикселей
Высота : 792 пикселя
Соотношение сторон : 2,40:1
Режим частоты кадров : Постоянный
Частота кадров : 23,976 кадра/сек
Цветовое пространство : YUV
Субдискретизация насыщенности : 4:2:0
Битовая глубина : 8 бит
Тип развёртки : Прогрессивная
Бит/(Пиксели*Кадры) : 0.389
Размер потока : 11,5 Гбайт (84%)
Заголовок : Nocturnal Animals (2016) - Release for HDCLUB
Библиотека кодирования : x264 core 148 r2721.18 cd45d75 VietHD_Custom_64
Настройки программы : cabac=1 / ref=5 / deblock=1:-3:-3 / analyse=0x3:0x133 / me=umh / subme=10 / psy=1 / fade_compensate=0.00 / psy_rd=1.05:0.00 / mixed_ref=1 / me_range=32 / chroma_me=1 / trellis=2 / 8x8dct=1 / cqm=0 / deadzone=21,11 / fast_pskip=0 / chroma_qp_offset=-2 / threads=56 / lookahead_threads=6 / sliced_threads=0 / nr=0 / decimate=0 / interlaced=0 / bluray_compat=0 / constrained_intra=0 / fgo=0 / bframes=9 / b_pyramid=2 / b_adapt=2 / b_bias=0 / direct=3 / weightb=1 / open_gop=0 / weightp=2 / keyint=250 / keyint_min=23 / scenecut=40 / intra_refresh=0 / rc_lookahead=60 / rc=crf / mbtree=0 / crf=17.8000 / qcomp=0.65 / qpmin=0:0:0 / qpmax=69:69:69 / qpstep=4 / vbv_maxrate=62500 / vbv_bufsize=78125 / crf_max=0.0 / nal_hrd=none / filler=0 / ip_ratio=1.30 / pb_ratio=1.20 / aq=3:0.80 / aq-sensitivity=10.00 / aq-factor=1.00:1.00:1.00 / aq2=0 / aq3=0 / zones=436,559,crf=16
Язык : English
Default : Да
Forced : Нет

Аудио #1
Идентификатор : 2
Формат : DTS
Формат/Информация : Digital Theater Systems
Режим : 16
Параметр Endianness формата : Big
Идентификатор кодека : A_DTS
Продолжительность : 1 ч. 56 м.
Вид битрейта : Постоянный
Битрейт : 768 Кбит/сек
Каналы : 6 каналов
Расположение каналов : Front: L C R, Side: L R, LFE
Частота : 48,0 КГц
Битовая глубина : 24 бит
Метод сжатия : С потерями
Размер потока : 638 Мбайт (5%)
Заголовок : DTS 5.1 @ 768 kbps - DUB, Blu-ray CEE
Язык : Russian
Default : Да
Forced : Нет

Аудио #2
Идентификатор : 3
Формат : DTS
Формат/Информация : Digital Theater Systems
Режим : 16
Параметр Endianness формата : Big
Идентификатор кодека : A_DTS
Продолжительность : 1 ч. 56 м.
Вид битрейта : Постоянный
Битрейт : 1509 Кбит/сек
Каналы : 6 каналов
Расположение каналов : Front: L C R, Side: L R, LFE
Частота : 48,0 КГц
Битовая глубина : 24 бит
Метод сжатия : С потерями
Размер потока : 1,22 Гбайт (9%)
Заголовок : DTS 5.1 @ 1536 kbps
Язык : English
Default : Нет
Forced : Нет

Текст #1
Идентификатор : 4
Формат : UTF-8
Идентификатор кодека : S_TEXT/UTF8
Идентификатор кодека/Информация : UTF-8 Plain Text
Заголовок : Forced, Blu-ray CEE
Язык : Russian
Default : Да
Forced : Нет

Текст #2
Идентификатор : 5
Формат : UTF-8
Идентификатор кодека : S_TEXT/UTF8
Идентификатор кодека/Информация : UTF-8 Plain Text
Заголовок : Blu-ray CEE
Язык : Russian
Default : Нет
Forced : Нет

Текст #3
Идентификатор : 6
Формат : UTF-8
Идентификатор кодека : S_TEXT/UTF8
Идентификатор кодека/Информация : UTF-8 Plain Text
Язык : English
Default : Нет
Forced : Нет

Текст #4
Идентификатор : 7
Формат : UTF-8
Идентификатор кодека : S_TEXT/UTF8
Идентификатор кодека/Информация : UTF-8 Plain Text
Заголовок : SDH
Язык : English
Default : Нет
Forced : Нет

Меню
00:00:00.000 : en:00:00:00.000
00:05:25.867 : en:00:05:25.867
00:09:35.742 : en:00:09:35.742
00:13:32.854 : en:00:13:32.854
00:19:32.755 : en:00:19:32.755
00:29:48.870 : en:00:29:48.870
00:34:29.901 : en:00:34:29.901
00:40:00.732 : en:00:40:00.732
00:45:11.334 : en:00:45:11.334
00:52:55.422 : en:00:52:55.422
00:59:37.407 : en:00:59:37.407
01:04:15.769 : en:01:04:15.769
01:12:49.615 : en:01:12:49.615
01:20:03.215 : en:01:20:03.215
01:25:11.898 : en:01:25:11.898
01:31:53.299 : en:01:31:53.299
01:35:24.010 : en:01:35:24.010
01:40:48.876 : en:01:40:48.876
01:45:04.590 : en:01:45:04.590
01:49:45.579 : en:01:49:45.579
pb.wtf



Скачать Под покровом ночи через торрент http://i1.imageban.ru/out/2017/02/24/d1854ec6fbe6be5266d50f86a66ffd2f.jpg Скачать фильм Под покровом ночи через торрент бесплантно в хорошем качестве О фильме: У Сьюзен роскошная жизнь в Лос-Анджелесе, прекрасный муж и собственная галерея. Но однажды она получает неожиданную посылку от ... 9.8 10 10
Info! Золотая раздача, скачанное не засчитывается.
Торрент: Зарегистрирован [2017-02-24 20:39] · скачан: 386 раз
Статус: √ проверено
Размер: 13.63 GB
Как cкачать? Как скачать Под покровом ночи через торрент | qTorrent

% Раздел Тема Автор DL S | L
Фильмы 2016 [DVDrip, WEB-DLRip, HDrip] (DUB, MVO) [ 2.92 GB ] Под покровом ночи / Nocturnal Animals [2016 BDRip-AVC] AVO от ExKinoRay Enigma2010 Скачать
1 | 0
Фильмы 2016 [DVDrip, WEB-DLRip, HDrip] (DUB, MVO) [ 2.18 GB ] Под покровом ночи / Nocturnal Animals [2016 BDRip] - [] Twi7ter Скачать
1 | 0
Фильмы 2016 [DVDrip, WEB-DLRip, HDrip] (DUB, MVO) [ 1.56 GB ] Под покровом ночи / Nocturnal Animals [2016 BDRip-AVC от sokol_ok] sokol_ok Скачать
2 | 0
Фильмы 2016 [DVDrip, WEB-DLRip, HDrip] (DUB, MVO) [ 746 MB ] Под покровом ночи / Nocturnal Animals [2016 BDRip-AVC от sokol_ok] sokol_ok Скачать
4 | 0
Фильмы 2016 [DVDrip, WEB-DLRip, HDrip] (DUB, MVO) [ 2.26 GB ] Под покровом ночи / Nocturnal Animals [2016 BDRip-AVC от sokol_ok] sokol_ok Скачать
2 | 0
Фильмы 2016 [DVDrip, WEB-DLRip, HDrip] (DUB, MVO) [ 1.46 GB ] Под покровом ночи / Nocturnal Animals [2016 BDRip] - [] Twi7ter Скачать
2 | 0
Фильмы с украинским озвучиванием [ 15.31 GB ] Под покровом ночи / Нічні звірі / Nocturnal Animals [2016 BDRip 1080p] [Ukr MVO] killermax2013 Скачать
1 | 0


Последний раз редактировалось: killermax2013 (2017-02-24 22:03), всего редактировалось 1 раз

28-11-2019 20:33  

Отключить всю рекламу на сайте

02-06-2019 21:09 Под покровом ночи Скачать торрент  

Превосходный, до мелочей продуманный фильм!
Завидую тем, кто ещё не смотрел.pb.wtf



    Дорогой пользователь! Огромная просьба, поблагодарите релизера, оцените раздачу и оставьте свои комментарий, если Вы скачали Под покровом ночи через торрент бесплатно! Внесите свою лепту в развитие PiratBit!
    Комментировать посты могут только пользователи прошедшие не сложную регистрацию
    Показать сообщения:    

    Под покровом ночи через торрент
    Скачать бесплатно Под покровом ночи
    Под покровом ночи скачать торрент
    Под покровом ночи смотреть онлайн
    Cкачать фильм Под покровом ночи бесплатно
    Под покровом ночи скачать торрент в хорошем качестве
    Под покровом ночи смотреть онлайн бесплатно в хорошем качестве


    Вы не можете начинать темы
    Вы не можете отвечать на сообщения
    Вы не можете редактировать свои сообщения
    Вы не можете удалять свои сообщения
    Вы не можете голосовать в опросах
    Вы не можете прикреплять файлы к сообщениям
    Вы можете скачивать файлы