Ссылка на приватное зеркало нашего сайта всего за 1$. Внимание количество ограничено!!!

2 сезон

iTunes

1 сезон

1

iTunes

iTunes

iTunes

1 сезон

RePack

30

ИГРА 18+

pack

ВАЖНО

!!Акция!!

Alien_RageХит недели

RePack

MK11
pack

Забери бонус

RePack

jed

!!Акция!!

Alien_Rage

RePack

fifa19

RePack

Assassins Creed: Odyssey

RePack

NEED FOR SPEED™ PAYBACK

4 сезон

9 сезон

Бесстыжие 9 сезон

Все сериалы

все сериалы на PB.wtf

RePack

FAR CRY 5
  

Под покровом ночи / Nocturnal Animals (Том Форд) [2016, триллер, драма, BDRip 1080p] DUB [Лицензия] pb.wtf

Под покровом ночи через торрент pb.wtf

Качают: 1 [ 0 KB/s ]
Размер: 7.75 GB | Добавлен: 3 года 8 мес. назад | Торрент скачан:889 раз
Скачать  

25-02-2017 05:40 Под покровом ночи Скачать торрент  

Под покровом ночи / Nocturnal Animals
Год выпуска: 2016
Страна: США
Жанр: триллер, драма
Продолжительность: 01:56:08
Перевод: Дубляж - [Лицензия]
Субтитры: Русские, английские

Режиссер: Том Форд

rating

В ролях:

Эми Адамс, Джейк Джилленхол, Майкл Шеннон, Аарон Тейлор-Джонсон, Айла Фишер, Элли Бамбер, Арми Хаммер, Карл Глусман, Роберт Арамайо, Лора Линни

Описание:

У Сьюзен роскошная жизнь в Лос-Анджелесе, прекрасный муж и собственная галерея. Но однажды она получает неожиданную посылку от бывшего супруга — он хотел бы встретиться, но сначала просит прочитать его новый роман. Сьюзен не подозревает, что как только она откроет рукопись, она вернется в прошлое, которое считала надежно укрытым под покровом ночи.

Качество: BDRip 1080p
Формат: MKV
Видео кодек: H.264
Аудио кодек: AC3

Видео: 1920x792p (2.40:1), 23.976 fps, AVC MPEG-4 (H.264), High@L4.1 ~8278 kbps, 0.227 bit/pixel
Аудио#1: Русский: 48 kHz, AC3 Dolby Digital, 6 ch, ~640 kbps [Профессиональный (полное дублирование)]
Аудио#2: Английский: 48 kHz, AC3 Dolby Digital, 6 ch, ~640 kbps [Оригинал]
Общее
Уникальный идентификатор : 192941312880372064213295504901003557231 (0x9127252BBBC38852BDACCD01AFE8396F)
Формат : Matroska
Версия формата : Version 2
Размер файла : 7,75 Гбайт
Продолжительность : 1 ч. 56 м.
Общий поток : 9553 Кбит/сек
Название фильма : Nocturnal.Animals.2016.BDRip.1080p.(qqss44)
Дата кодирования : UTC 2017-02-24 19:18:59
Программа кодирования : mkvmerge v5.8.0 ('No Sleep / Pillow') built on Sep 2 2012 15:37:04
Библиотека кодирования : libebml v1.2.3 + libmatroska v1.3.0

Видео
Идентификатор : 1
Формат : AVC
Формат/Информация : Advanced Video Codec
Профиль формата : High@L4.1
Параметр CABAC формата : Да
Параметр ReFrames формата : 5 кадров
Идентификатор кодека : V_MPEG4/ISO/AVC
Продолжительность : 1 ч. 56 м.
Битрейт : 8278 Кбит/сек
Ширина : 1920 пикселей
Высота : 792 пикселя
Соотношение сторон : 2,40:1
Режим частоты кадров : Постоянный
Частота кадров : 23,976 (24000/1001) кадра/сек
Цветовое пространство : YUV
Субдискретизация насыщенности : 4:2:0
Битовая глубина : 8 бит
Тип развёртки : Прогрессивная
Бит/(Пиксели*Кадры) : 0.227
Размер потока : 6,56 Гбайт (85%)
Заголовок : Nocturnal.Animals.2016.BDRip.1080p.(qqss44)
Библиотека кодирования : x264 core 148 r2744kMod b97ae06
Настройки программы : cabac=1 / ref=5 / deblock=1:-3:-3 / analyse=0x3:0x133 / me=umh / subme=11 / psy=1 / fade_compensate=0.00 / psy_rd=1.00:0.00 / mixed_ref=1 / me_range=32 / chroma_me=1 / trellis=2 / 8x8dct=1 / cqm=0 / deadzone=21,11 / fast_pskip=0 / chroma_qp_offset=-2 / threads=12 / lookahead_threads=2 / sliced_threads=0 / nr=0 / decimate=0 / interlaced=0 / bluray_compat=0 / constrained_intra=0 / bframes=9 / b_pyramid=2 / b_adapt=2 / b_bias=0 / direct=3 / weightb=1 / open_gop=0 / weightp=2 / keyint=240 / keyint_min=23 / scenecut=40 / intra_refresh=0 / rc=2pass / mbtree=0 / bitrate=8278 / ratetol=1.0 / qcomp=0.60 / qpmin=0 / qpmax=69 / qpstep=4 / cplxblur=20.0 / qblur=0.5 / ip_ratio=1.40 / pb_ratio=1.30 / aq=3:0.70
Язык : English
Default : Да
Forced : Нет

Аудио #1
Идентификатор : 2
Формат : AC-3
Формат/Информация : Audio Coding 3
Расширение режима : CM (complete main)
Параметр Endianness формата : Big
Идентификатор кодека : A_AC3
Продолжительность : 1 ч. 56 м.
Вид битрейта : Постоянный
Битрейт : 640 Кбит/сек
Каналы : 6 каналов
Расположение каналов : Front: L C R, Side: L R, LFE
Частота : 48,0 КГц
Частота кадров : 31,250 кадров/сек (1536 spf)
Метод сжатия : С потерями
Размер потока : 532 Мбайт (7%)
Заголовок : DUB | DD5.1 @ 640 kbps
Язык : Russian
Default : Да
Forced : Нет

Аудио #2
Идентификатор : 3
Формат : AC-3
Формат/Информация : Audio Coding 3
Расширение режима : CM (complete main)
Параметр Endianness формата : Big
Идентификатор кодека : A_AC3
Продолжительность : 1 ч. 56 м.
Вид битрейта : Постоянный
Битрейт : 640 Кбит/сек
Каналы : 6 каналов
Расположение каналов : Front: L C R, Side: L R, LFE
Частота : 48,0 КГц
Частота кадров : 31,250 кадров/сек (1536 spf)
Метод сжатия : С потерями
Размер потока : 532 Мбайт (7%)
Заголовок : Original | DD5.1 @ 640 kbps
Язык : English
Default : Нет
Forced : Нет

Текст #1
Идентификатор : 4
Формат : UTF-8
Идентификатор кодека : S_TEXT/UTF8
Идентификатор кодека/Информация : UTF-8 Plain Text
Заголовок : FORCED (Blu-ray CEE)
Язык : Russian
Default : Да
Forced : Нет

Текст #2
Идентификатор : 5
Формат : UTF-8
Идентификатор кодека : S_TEXT/UTF8
Идентификатор кодека/Информация : UTF-8 Plain Text
Заголовок : FULL (Blu-ray CEE)
Язык : Russian
Default : Нет
Forced : Нет

Текст #3
Идентификатор : 6
Формат : UTF-8
Идентификатор кодека : S_TEXT/UTF8
Идентификатор кодека/Информация : UTF-8 Plain Text
Заголовок : FULL (без цензуры, ненормативная лексика)
Язык : Russian
Default : Нет
Forced : Нет

Текст #4
Идентификатор : 7
Формат : UTF-8
Идентификатор кодека : S_TEXT/UTF8
Идентификатор кодека/Информация : UTF-8 Plain Text
Заголовок : FULL (Blu-ray CEE)
Язык : English
Default : Нет
Forced : Нет

Меню
00:00:00.000 : en:00:00:00.000
00:05:25.867 : en:00:05:25.867
00:09:35.742 : en:00:09:35.742
00:13:32.854 : en:00:13:32.854
00:19:32.755 : en:00:19:32.755
00:29:48.870 : en:00:29:48.870
00:34:29.901 : en:00:34:29.901
00:40:00.732 : en:00:40:00.732
00:45:11.334 : en:00:45:11.334
00:52:55.422 : en:00:52:55.422
00:59:37.407 : en:00:59:37.407
01:04:15.769 : en:01:04:15.769
01:12:49.615 : en:01:12:49.615
01:20:03.215 : en:01:20:03.215
01:25:11.898 : en:01:25:11.898
01:31:53.299 : en:01:31:53.299
01:35:24.010 : en:01:35:24.010
01:40:48.876 : en:01:40:48.876
01:45:04.590 : en:01:45:04.590
01:49:45.579 : en:01:49:45.579
скриншот   скриншот   скриншот   скриншот  
pb.wtf



Скачать Под покровом ночи через торрент http://pic1.kartinco.top/images/11/caixj.jpg Скачать фильм Под покровом ночи через торрент бесплантно в хорошем качестве Описание: У Сьюзен роскошная жизнь в Лос-Анджелесе, прекрасный муж и собственная галерея. Но однажды она получает неожиданную посылку от ... 10 10 22
Info! Золотая раздача, скачанное не засчитывается.
Торрент: Зарегистрирован [2017-02-25 05:40] · скачан: 889 раз
Статус: √ проверено
Размер: 7.75 GB
Как cкачать? Как скачать Под покровом ночи через торрент | qTorrent

% Раздел Тема Автор DL S | L
Фильмы [HD 720p, 1080p] (Хороший звук DUB, MVO) [ 13.63 GB ] Под покровом ночи / Nocturnal Animals [2016 BDRip 1080p] [ BD CEE] killermax2013 Скачать
1 | 0
Фильмы 2016 [DVDrip, WEB-DLRip, HDrip] (DUB, MVO) [ 2.92 GB ] Под покровом ночи / Nocturnal Animals [2016 BDRip-AVC] AVO от ExKinoRay Enigma2010 Скачать
2 | 0
Фильмы 2016 [DVDrip, WEB-DLRip, HDrip] (DUB, MVO) [ 2.18 GB ] Под покровом ночи / Nocturnal Animals [2016 BDRip] - [] Twi7ter Скачать
3 | 0
Фильмы 2016 [DVDrip, WEB-DLRip, HDrip] (DUB, MVO) [ 1.56 GB ] Под покровом ночи / Nocturnal Animals [2016 BDRip-AVC от sokol_ok] sokol_ok Скачать
3 | 0
Фильмы 2016 [DVDrip, WEB-DLRip, HDrip] (DUB, MVO) [ 746 MB ] Под покровом ночи / Nocturnal Animals [2016 BDRip-AVC от sokol_ok] sokol_ok Скачать
4 | 0
Фильмы 2016 [DVDrip, WEB-DLRip, HDrip] (DUB, MVO) [ 2.26 GB ] Под покровом ночи / Nocturnal Animals [2016 BDRip-AVC от sokol_ok] sokol_ok Скачать
2 | 0
Фильмы 2016 [DVDrip, WEB-DLRip, HDrip] (DUB, MVO) [ 1.46 GB ] Под покровом ночи / Nocturnal Animals [2016 BDRip] - [] Twi7ter Скачать
2 | 0

28-11-2019 20:33  

Отключить всю рекламу на сайте

    Дорогой пользователь! Огромная просьба, поблагодарите релизера, оцените раздачу и оставьте свои комментарий, если Вы скачали Под покровом ночи через торрент бесплатно! Внесите свою лепту в развитие PiratBit!
    Комментировать посты могут только пользователи прошедшие не сложную регистрацию
    Показать сообщения:    

    Под покровом ночи через торрент
    Скачать бесплатно Под покровом ночи
    Под покровом ночи скачать торрент
    Под покровом ночи смотреть онлайн
    Cкачать фильм Под покровом ночи бесплатно
    Под покровом ночи скачать торрент в хорошем качестве
    Под покровом ночи смотреть онлайн бесплатно в хорошем качестве


    Вы не можете начинать темы
    Вы не можете отвечать на сообщения
    Вы не можете редактировать свои сообщения
    Вы не можете удалять свои сообщения
    Вы не можете голосовать в опросах
    Вы не можете прикреплять файлы к сообщениям
    Вы можете скачивать файлы