Ссылка на приватное зеркало нашего сайта всего за 1$. Внимание количество ограничено!!!

2 сезон

iTunes

1 сезон

1

2 сезон

2 сезон

iTunes

1 сезон

RePack

30

Новинка

ВАЖНО

ИГРА 18+

pack

RePack

MK11
pack

Забери бонус

RePack

jed

!!Акция!!

Alien_Rage

RePack

fifa19

RePack

Assassins Creed: Odyssey

RePack

NEED FOR SPEED™ PAYBACK

4 сезон

9 сезон

Бесстыжие 9 сезон

Все сериалы

все сериалы на PB.wtf

RePack

FAR CRY 5
  

Уличный кот по кличке Боб / A Street Cat Named Bob (Роджер Споттисвуд) [2016, Драма, комедия, семейный, биография, BDRemux 1080p] от ExKinoRay / Лицензия pb.wtf

Уличный кот по кличке Боб через торрент pb.wtf

Размер: 21.24 GB | Добавлен: 3 года 8 мес. назад | Торрент скачан:61 раз
Скачать  

25-02-2017 12:11 Уличный кот по кличке Боб Скачать торрент  

Информация о фильме
Название: Уличный кот по кличке Боб
Оригинальное название: A Street Cat Named Bob
Год выхода: 2016
Жанр: Драма, комедия, семейный, биография
Страна: Великобритания
Студия: Shooting Films, Prescience, Iris Productions
Продолжительность: 01:42:48
Перевод: Профессиональный многоголосый (закадровый) | Лицензия
Субтитры: Русские, английские

Режиссер: Роджер Споттисвуд

В ролях: Люк Тредэвэй, Рута Гедминтас, Джоанн Фроггатт, Энтони Хэд, Даррен Эванс, Тони Джайавардена, Адам Ричез, Льюэлла Гидеон, Лоррейн Эшборн

О фильме:

Рассказ о том, как Джеймс Боуэн, восстанавливающийся от наркотической зависимости уличный музыкант, встретил рыжего уличного кота и его жизнь изменилась в лучшую сторону.

rating

Качество: BDRemux 1080p
Формат: MKV
Видео: MPEG-4 AVC, 1920x1080, 24829 Kbit/s, 23.976 fps
Аудио #01: 48 kHz, DTS-HD MA, 5.1, 2173 Kbps | Дублированный |
Аудио #01: 48 kHz, AC3, 5.1, 448 Kbps | Дублированный |
Аудио #03: 48 kHz, DTS-HD MA, 5.1, 2131 kbps | Оригинал |
General

Unique ID : 232304315894493117901086952797629044767 (0xAEC42F0EC5BEDC41A9A9D8C4B5FBD81F)

Complete name : G:VideoA.Street.Cat.Named.Bob.2016.BDREMUX.1080p.ExKinoRay.mkv

Format : Matroska

Format version : Version 4 / Version 2

File size : 21.2 GiB

Duration : 1 h 42 min

Overall bit rate mode : Variable

Overall bit rate : 29.6 Mb/s

Encoded date : UTC 2017-02-25 10:42:11

Writing application : mkvmerge v8.3.0 ('Over the Horizon') 64bit

Writing library : libebml v1.3.1 + libmatroska v1.4.2

Video

ID : 1

Format : AVC

Format/Info : Advanced Video Codec

Format profile : High@L4.1

Format settings, CABAC : Yes

Format settings, ReFrames : 2 frames

Codec ID : V_MPEG4/ISO/AVC

Duration : 1 h 42 min

Bit rate mode : Variable

Bit rate : 24.8 Mb/s

Width : 1 920 pixels

Height : 1 080 pixels

Display aspect ratio : 16:9

Frame rate mode : Constant

Frame rate : 23.976 (24000/1001) FPS

Color space : YUV

Chroma subsampling : 4:2:0

Bit depth : 8 bits

Scan type : Progressive

Bits/(Pixel*Frame) : 0.499

Stream size : 17.8 GiB (84%)

Language : English

Default : Yes

Forced : No

Audio #1

ID : 2

Format : DTS

Format/Info : Digital Theater Systems

Format profile : MA / Core

Mode : 16

Format settings, Endianness : Big

Codec ID : A_DTS

Duration : 1 h 42 min

Bit rate mode : Variable / Constant

Bit rate : 2 173 kb/s / 1 509 kb/s

Channel(s) : 6 channels

Channel positions : Front: L C R, Side: L R, LFE

Sampling rate : 48.0 kHz

Frame rate : 93.750 FPS (512 spf)

Bit depth : 16 bits

Compression mode : Lossless / Lossy

Stream size : 1.56 GiB (7%)

Title : Dub [License]

Language : Russian

Default : Yes

Forced : No

Audio #2

ID : 3

Format : AC-3

Format/Info : Audio Coding 3

Mode extension : CM (complete main)

Format settings, Endianness : Big

Codec ID : A_AC3

Duration : 1 h 42 min

Bit rate mode : Constant

Bit rate : 448 kb/s

Channel(s) : 6 channels

Channel positions : Front: L C R, Side: L R, LFE

Sampling rate : 48.0 kHz

Frame rate : 31.250 FPS (1536 spf)

Bit depth : 16 bits

Compression mode : Lossy

Delay relative to video : -15 ms

Stream size : 329 MiB (2%)

Title : Dub [License]

Language : Russian

Default : No

Forced : No

Audio #3

ID : 4

Format : DTS

Format/Info : Digital Theater Systems

Format profile : MA / Core

Mode : 16

Format settings, Endianness : Big

Codec ID : A_DTS

Duration : 1 h 42 min

Bit rate mode : Variable / Constant

Bit rate : 2 131 kb/s / 1 509 kb/s

Channel(s) : 6 channels

Channel positions : Front: L C R, Side: L R, LFE

Sampling rate : 48.0 kHz

Frame rate : 93.750 FPS (512 spf)

Bit depth : 16 bits

Compression mode : Lossless / Lossy

Stream size : 1.53 GiB (7%)

Title : Original

Language : English

Default : No

Forced : No

Text #1

ID : 5

Format : UTF-8

Codec ID : S_TEXT/UTF8

Codec ID/Info : UTF-8 Plain Text

Duration : 1 h 41 min

Bit rate : 80 b/s

Count of elements : 1116

Stream size : 60.3 KiB (0%)

Title : Full

Language : Russian

Default : No

Forced : No

Text #2

ID : 6

Format : UTF-8

Codec ID : S_TEXT/UTF8

Codec ID/Info : UTF-8 Plain Text

Duration : 1 h 36 min

Bit rate : 57 b/s

Count of elements : 1385

Stream size : 40.7 KiB (0%)

Title : Full

Language : English

Default : No

Forced : No

Menu

00:00:00.000 : en:Chapter 1

00:06:55.164 : en:Chapter 2

00:11:37.071 : en:Chapter 3

00:18:52.881 : en:Chapter 4

00:28:30.250 : en:Chapter 5

00:31:36.895 : en:Chapter 6

00:37:52.061 : en:Chapter 7

00:45:03.242 : en:Chapter 8

00:49:39.810 : en:Chapter 9

00:54:35.063 : en:Chapter 10

01:03:16.000 : en:Chapter 11

01:07:13.821 : en:Chapter 12

01:11:18.774 : en:Chapter 13

01:19:17.502 : en:Chapter 14

01:27:15.897 : en:Chapter 15

01:34:30.665 : en:Chapter 16
скриншот  скриншот  скриншот  
Релиз от: Автор релиза: pb.wtf



Скачать Уличный кот по кличке Боб через торрент http://s03.radikal.ru/i176/1702/1d/99ddca356b56.jpg Скачать фильм Уличный кот по кличке Боб через торрент бесплантно в хорошем качестве О фильме:Рассказ о том, как Джеймс Боуэн, восстанавливающийся от наркотической зависимости уличный музыкант, встретил рыжего уличного кота ... 10 10 4
Info! Золотая раздача, скачанное не засчитывается.
Торрент: Зарегистрирован [2017-02-25 12:11] · скачан: 61 раз
Статус: √ проверено
Размер: 21.24 GB
Как cкачать? Как скачать Уличный кот по кличке Боб через торрент | qTorrent

28-11-2019 20:33  

Отключить всю рекламу на сайте

    Дорогой пользователь! Огромная просьба, поблагодарите релизера, оцените раздачу и оставьте свои комментарий, если Вы скачали Уличный кот по кличке Боб через торрент бесплатно! Внесите свою лепту в развитие PiratBit!
    Комментировать посты могут только пользователи прошедшие не сложную регистрацию
    Показать сообщения:    

    Уличный кот по кличке Боб через торрент
    Скачать бесплатно Уличный кот по кличке Боб
    Уличный кот по кличке Боб скачать торрент
    Уличный кот по кличке Боб смотреть онлайн
    Cкачать фильм Уличный кот по кличке Боб бесплатно
    Уличный кот по кличке Боб скачать торрент в хорошем качестве
    Уличный кот по кличке Боб смотреть онлайн бесплатно в хорошем качестве


    Вы не можете начинать темы
    Вы не можете отвечать на сообщения
    Вы не можете редактировать свои сообщения
    Вы не можете удалять свои сообщения
    Вы не можете голосовать в опросах
    Вы не можете прикреплять файлы к сообщениям
    Вы можете скачивать файлы