1 сезон

3 сезон

iTunes

1

iTunes

MVO

iTunes

13

1 сезон

RePack

30

Deluxe

pack

Лицензия

ВАЖНО

ИГРА 18+

pack

RePack

MK11

RePack

jed

RePack

fifa19

RePack

RDR2

RePack

NEED FOR SPEED™ PAYBACK

4 сезон

9 сезон

Бесстыжие 9 сезон

Все сериалы

все сериалы на PB.wtf

RePack

FAR CRY 5

Anonymous, добрый вечер, мы катастрофически не успеваем собрать деньги на оплату серверов, помогите нам пожалуйста 5,10,15р., для нас важна любая помощь . В качестве благодарности мы отключим Вам всю рекламу на сайте (укажите свой ник в строку Ваше имя)!

×
  
Magnet ссылка

Под покровом ночи / Nocturnal Animals (Том Форд) [2016, триллер, драма, BDRip-AVC от R.G.Resident] Дубляж - [Лицензия] pb.wtf

Под покровом ночи через торрент pb.wtf

Раздают: 1 [ 0 KB/s ]
Размер: 2.12 GB | Добавлен: 4 года 5 мес. назад | Торрент скачан:834 раза
Скачать  

25-02-2017 13:02 Под покровом ночи Скачать торрент  

Под покровом ночи / Nocturnal Animals
««When you love someone you can't just throw it away»»

Год выпуска: 2016
Страна: США
Жанр: триллер, драма
Продолжительность: 01:56:08
Перевод: Дубляж - [Лицензия]
Субтитры: русские (Forced), русские (forced), английские (full), английские (SDH)
Режиссер: Том Форд
В ролях:

Эми Адамс (Susan Morrow), Джейк Джилленхол (Tony Hastings / Edward Sheffield), Майкл Шеннон (Bobby Andes), Аарон Тейлор-Джонсон (Ray Marcus), Айла Фишер (Laura Hastings), Элли Бамбер (India Hastings), Арми Хаммер (Hutton Morrow), Карл Глусман (Lou), Роберт Арамайо (Turk), Лора Линни (Anne Sutton), Андреа Райзборо (Alessia), Майкл Шин (Carlos)
Описание:
У Сьюзен роскошная жизнь в Лос-Анджелесе, прекрасный муж и собственная галерея. Но однажды она получает неожиданную посылку от бывшего супруга - он хотел бы встретиться, но сначала просит прочитать его новый роман. Сьюзен не подозревает, что как только она откроет рукопись, она вернется в прошлое, которое считала надежно укрытым под покровом ночи.
Мировая премьера: 2 сентября 2016

MPAA: R - Лицам до 17 лет обязательно присутствие взрослого
Качество: BDRip-AVC Rip by
Формат: MKV
Видео: AVC, 1024x422 (2.40:1), 1711 kbps, 23,976 fps, 0,165 bpp
Аудио №1: русский / AC3 / 5.1 / 48 kHz / 448 kbps /
Аудио №2: английский / AC3 / 5.1 / 48 kHz / 448 kbps /
General
Unique ID : 190374396221926696071039364793669908134 (0x8F38C6688D721F399CB204D29515F6A6)
Complete name : D:\download\Nocturnal.Animals.2016.BDRip-AVC by schultz R.G.Resident.mkv
Format : Matroska
Format version : Version 4 / Version 2
File size : 2.12 GiB
Duration : 1 h 56 min
Overall bit rate : 2 608 kb/s
Encoded date : UTC 2017-02-25 12:01:32
Writing application : mkvmerge v8.9.0 ('Father Daughter') 64bit
Writing library : libebml v1.3.3 + libmatroska v1.4.4

Video
ID : 1
Format : AVC
Format/Info : Advanced Video Codec
Format profile : High@L4.1
Format settings, CABAC : Yes
Format settings, ReFrames : 12 frames
Codec ID : V_MPEG4/ISO/AVC
Duration : 1 h 56 min
Bit rate : 1 711 kb/s
Width : 1 024 pixels
Height : 422 pixels
Display aspect ratio : 2.40:1
Frame rate mode : Constant
Frame rate : 23.976 (23976/1000) FPS
Color space : YUV
Chroma subsampling : 4:2:0
Bit depth : 8 bits
Scan type : Progressive
Bits/(Pixel*Frame) : 0.165
Stream size : 1.39 GiB (66%)
Writing library : x264 core 146 r2538 121396c
Encoding settings : cabac=1 / ref=12 / deblock=1:-3:-3 / analyse=0x3:0x113 / me=umh / subme=11 / psy=1 / psy_rd=1.00:0.00 / mixed_ref=1 / me_range=48 / chroma_me=1 / trellis=2 / 8x8dct=1 / cqm=0 / deadzone=21,11 / fast_pskip=0 / chroma_qp_offset=-2 / threads=12 / lookahead_threads=3 / sliced_threads=0 / nr=0 / decimate=0 / interlaced=0 / bluray_compat=0 / constrained_intra=0 / bframes=11 / b_pyramid=2 / b_adapt=2 / b_bias=0 / direct=3 / weightb=1 / open_gop=0 / weightp=2 / keyint=240 / keyint_min=23 / scenecut=40 / intra_refresh=0 / rc_lookahead=40 / rc=2pass / mbtree=1 / bitrate=1711 / ratetol=1.0 / qcomp=0.60 / qpmin=0 / qpmax=69 / qpstep=4 / cplxblur=20.0 / qblur=0.5 / vbv_maxrate=50000 / vbv_bufsize=62500 / nal_hrd=none / filler=0 / ip_ratio=1.40 / aq=1:1.00
Language : English
Default : Yes
Forced : No

Audio #1
ID : 2
Format : AC-3
Format/Info : Audio Coding 3
Mode extension : CM (complete main)
Format settings, Endianness : Big
Codec ID : A_AC3
Duration : 1 h 56 min
Bit rate mode : Constant
Bit rate : 448 kb/s
Channel(s) : 6 channels
Channel positions : Front: L C R, Side: L R, LFE
Sampling rate : 48.0 kHz
Frame rate : 31.250 FPS (1536 spf)
Compression mode : Lossy
Stream size : 372 MiB (17%)
Language : Russian
Default : Yes
Forced : No

Audio #2
ID : 3
Format : AC-3
Format/Info : Audio Coding 3
Mode extension : CM (complete main)
Format settings, Endianness : Big
Codec ID : A_AC3
Duration : 1 h 56 min
Bit rate mode : Constant
Bit rate : 448 kb/s
Channel(s) : 6 channels
Channel positions : Front: L C R, Side: L R, LFE
Sampling rate : 48.0 kHz
Frame rate : 31.250 FPS (1536 spf)
Compression mode : Lossy
Stream size : 372 MiB (17%)
Language : English
Default : No
Forced : No

Text #1
ID : 4
Format : UTF-8
Codec ID : S_TEXT/UTF8
Codec ID/Info : UTF-8 Plain Text
Duration : 1 h 49 min
Bit rate : 0 b/s
Count of elements : 7
Stream size : 291 Bytes (0%)
Title : Forced
Language : Russian
Default : Yes
Forced : No

Text #2
ID : 5
Format : UTF-8
Codec ID : S_TEXT/UTF8
Codec ID/Info : UTF-8 Plain Text
Duration : 1 h 50 min
Bit rate : 92 b/s
Count of elements : 1379
Stream size : 74.7 KiB (0%)
Title : forced
Language : Russian
Default : No
Forced : No

Text #3
ID : 6
Format : UTF-8
Codec ID : S_TEXT/UTF8
Codec ID/Info : UTF-8 Plain Text
Duration : 1 h 42 min
Bit rate : 64 b/s
Count of elements : 1393
Stream size : 48.4 KiB (0%)
Title : full
Language : English
Default : No
Forced : No

Text #4
ID : 7
Format : UTF-8
Codec ID : S_TEXT/UTF8
Codec ID/Info : UTF-8 Plain Text
Duration : 1 h 44 min
Bit rate : 66 b/s
Count of elements : 1479
Stream size : 51.1 KiB (0%)
Title : SDH
Language : English
Default : No
Forced : No

Menu
00:00:00.000 : en:00:00:00.000
00:05:25.867 : en:00:05:25.867
00:09:35.742 : en:00:09:35.742
00:13:32.854 : en:00:13:32.854
00:19:32.755 : en:00:19:32.755
00:29:48.870 : en:00:29:48.870
00:34:29.901 : en:00:34:29.901
00:40:00.732 : en:00:40:00.732
00:45:11.334 : en:00:45:11.334
00:52:55.422 : en:00:52:55.422
00:59:37.407 : en:00:59:37.407
01:04:15.769 : en:01:04:15.769
01:12:49.615 : en:01:12:49.615
01:20:03.215 : en:01:20:03.215
01:25:11.898 : en:01:25:11.898
01:31:53.299 : en:01:31:53.299
01:35:24.010 : en:01:35:24.010
01:40:48.876 : en:01:40:48.876
01:45:04.590 : en:01:45:04.590
01:49:45.579 : en:01:49:45.579

pb.wtf



Скачать Под покровом ночи через торрент http://i77.fastpic.ru/big/2016/0417/a7/808a646271c761f7c7d87df3d366b3a7.png Скачать фильм Под покровом ночи через торрент бесплантно в хорошем качестве Описание: У Сьюзен роскошная жизнь в Лос-Анджелесе, прекрасный муж и собственная галерея. Но однажды она получает неожиданную посылку от ... 10 10 16
Info! Золотая раздача, скачанное не засчитывается.
Торрент: Зарегистрирован [2017-02-25 13:02] · скачан: 834 раз
Статус: √ проверено
Размер: 2.12 GB
Как cкачать? Как скачать Под покровом ночи через торрент | UTorrent

% Раздел Тема Автор DL S | L
Фильмы [HD 720p, 1080p] (Хороший звук DUB, MVO) [ 13.63 GB ] Под покровом ночи / Nocturnal Animals [2016 BDRip 1080p] [ BD CEE] killermax2013 Скачать
1 | 0
Фильмы 2016 [DVDrip, WEB-DLRip, HDrip] (DUB, MVO) [ 2.92 GB ] Под покровом ночи / Nocturnal Animals [2016 BDRip-AVC] AVO от ExKinoRay Enigma2010 Скачать
1 | 0
Фильмы 2016 [DVDrip, WEB-DLRip, HDrip] (DUB, MVO) [ 2.18 GB ] Под покровом ночи / Nocturnal Animals [2016 BDRip] - [] Twi7ter Скачать
1 | 0
Фильмы 2016 [DVDrip, WEB-DLRip, HDrip] (DUB, MVO) [ 1.56 GB ] Под покровом ночи / Nocturnal Animals [2016 BDRip-AVC от sokol_ok] sokol_ok Скачать
2 | 0
Фильмы 2016 [DVDrip, WEB-DLRip, HDrip] (DUB, MVO) [ 746 MB ] Под покровом ночи / Nocturnal Animals [2016 BDRip-AVC от sokol_ok] sokol_ok Скачать
2 | 0
Фильмы 2016 [DVDrip, WEB-DLRip, HDrip] (DUB, MVO) [ 2.26 GB ] Под покровом ночи / Nocturnal Animals [2016 BDRip-AVC от sokol_ok] sokol_ok Скачать
2 | 0
Фильмы 2016 [DVDrip, WEB-DLRip, HDrip] (DUB, MVO) [ 1.46 GB ] Под покровом ночи / Nocturnal Animals [2016 BDRip] - [] Twi7ter Скачать
2 | 0

28-11-2019 20:33  

Отключить всю рекламу на сайте

    Дорогой пользователь! Огромная просьба, поблагодарите релизера, оцените раздачу и оставьте свои комментарий, если Вы скачали Под покровом ночи через торрент бесплатно! Внесите свою лепту в развитие PiratBit!
    Комментировать посты могут только пользователи прошедшие не сложную регистрацию
    Показать сообщения:    

    Под покровом ночи через торрент
    Скачать бесплатно Под покровом ночи
    Под покровом ночи скачать торрент
    Под покровом ночи смотреть онлайн
    Cкачать фильм Под покровом ночи бесплатно
    Под покровом ночи скачать торрент в хорошем качестве
    Под покровом ночи смотреть онлайн бесплатно в хорошем качестве


    Вы не можете начинать темы
    Вы не можете отвечать на сообщения
    Вы не можете редактировать свои сообщения
    Вы не можете удалять свои сообщения
    Вы не можете голосовать в опросах
    Вы не можете прикреплять файлы к сообщениям
    Вы можете скачивать файлы