Ссылка на приватное зеркало нашего сайта всего за 1$. Внимание количество ограничено!!!

2 сезон

iTunes

1 сезон

1

iTunes

iTunes

iTunes

1 сезон

RePack

30

ИГРА 18+

pack

ВАЖНО

!!Акция!!

Alien_RageХит недели

RePack

MK11
pack

Забери бонус

RePack

jed

!!Акция!!

Alien_Rage

RePack

fifa19

RePack

Assassins Creed: Odyssey

RePack

NEED FOR SPEED™ PAYBACK

4 сезон

9 сезон

Бесстыжие 9 сезон

Все сериалы

все сериалы на PB.wtf

RePack

FAR CRY 5
  

За полчаса до весны /Cезон 1/Серии 1-4 из 4 (Валерий Девятилов) [2017 г., Мелодрама, SATRip] pb.wtf

За полчаса до весны через торрент pb.wtf

Размер: 2.43 GB | Добавлен: 3 года 8 мес. назад | Торрент скачан:103 раза
Скачать  

25-02-2017 15:26 За полчаса до весны Скачать торрент  

За полчаса до весны /Cезон 1/Серии 1-4 из 4
Год выпуска: 2017
Страна: Россия
Жанр: Мелодрама
Продолжительность: 4 х 00:45:00
Субтитры: нет

Режиссер: Валерий Девятилов

В ролях: Алёна Хмельницкая, Александр Лазарев (мл.), Дарья Петрова, Анастасия Веденская, Сергей Горобченко, Павел Кузьмин, Виктория Адельфина, Оксана Скоропад, Анатолий Наумов (II), Родион Галюченко, Натали Старынкевич

Описание: Тамара (Алена Хмельницкая) всю жизнь посвятила семье. Она, как ангел-хранитель, всегда и во всем поддерживала мужа Олега (Александр Лазарев-мл.), талантливого хирурга и своих двух дочерей – Иру (Анастасия Веденская) и Аню (Дарья Петрова).
Но однажды из семьи Тамары уходят покой и радость. Олег за спиной жены заводит роман с юной девушкой (Оксана Скоропад). Старшая дочь Ира, роковая красавица, не ладит со своим мужем ученым-недотепой Вадимом (Сергей Горобченко) и собирается уйти от него к гитаристу из группы. А младшая Аня ждет ребенка от парня, который ее обманывает…
Удастся ли Тамаре сохранить семейное счастье, которое еще вчера казалось нерушимым?

Качество: SATRip
Формат: AVI
Видео кодек: XviD
Аудио кодек: MP3
Видео: 720x400 (1.80:1), 25 fps, XviD build 50 ~1800 kbps avg, 0.25 bit/pixel
Аудио: 48 kHz, MPEG Layer 3, 2 ch, ~128.00 kbps avg



General
Complete name : H:\релизы.торрентфайл\Za.polchasa.do.vesny.SATRip.[www.riperam.org]\Za.polchasa.do.vesny.01.SATRip.[www.riperam.org].avi
Format : AVI
Format/Info : Audio Video Interleave
File size : 644 MiB
Duration : 46mn 27s
Overall bit rate : 1 938 Kbps
Writing application : VirtualDubMod 1.5.10.3
Writing library : VirtualDubMod build 2550/release

Video
ID : 0
Format : MPEG-4 Visual
Format profile : Advanced Simple@L5
Format settings, BVOP : 2
Format settings, QPel : No
Format settings, GMC : No warppoints
Format settings, Matrix : Default (H.263)
Codec ID : XVID
Codec ID/Hint : XviD
Duration : 46mn 27s
Bit rate : 1 800 Kbps
Width : 720 pixels
Height : 400 pixels
Display aspect ratio : 16:9
Frame rate : 25.000 fps
Color space : YUV
Chroma subsampling : 4:2:0
Bit depth : 8 bits
Scan type : Progressive
Compression mode : Lossy
Bits/(Pixel*Frame) : 0.250
Stream size : 598 MiB (93%)
Writing library : XviD 1.2.1 (UTC 2008-12-04)

Audio
ID : 1
Format : MPEG Audio
Format version : Version 1
Format profile : Layer 3
Mode : Joint stereo
Mode extension : MS Stereo
Codec ID : 55
Codec ID/Hint : MP3
Duration : 46mn 27s
Bit rate mode : Constant
Bit rate : 128 Kbps
Channel(s) : 2 channels
Sampling rate : 48.0 KHz
Compression mode : Lossy
Stream size : 42.5 MiB (7%)
Alignment : Aligned on interleaves
Interleave, duration : 40 ms (1.00 video frame)
Interleave, preload duration : 504 ms
Writing library : LAME3.99r
Encoding settings : -m j -V 4 -q 9 -lowpass 17 -b 128

pb.wtf



Скачать За полчаса до весны через торрент http://pic1.kartinco.top/images/11/t8zbv.jpg Скачать фильм За полчаса до весны через торрент бесплантно в хорошем качестве Описание: Тамара (Алена Хмельницкая) всю жизнь посвятила семье. Она, как ангел-хранитель, всегда и во всем поддерживала мужа Олега ... 10 10 2
Торрент: Зарегистрирован [2017-02-25 15:26] · скачан: 103 раз
Статус: √ проверено
Размер: 2.43 GB
Как cкачать? Как скачать За полчаса до весны через торрент | qTorrent

28-11-2019 20:33  

Отключить всю рекламу на сайте

    Дорогой пользователь! Огромная просьба, поблагодарите релизера, оцените раздачу и оставьте свои комментарий, если Вы скачали За полчаса до весны через торрент бесплатно! Внесите свою лепту в развитие PiratBit!
    Комментировать посты могут только пользователи прошедшие не сложную регистрацию
    Показать сообщения:    

    За полчаса до весны через торрент
    Скачать бесплатно За полчаса до весны
    За полчаса до весны скачать торрент
    За полчаса до весны смотреть онлайн
    Cкачать фильм За полчаса до весны бесплатно
    За полчаса до весны скачать торрент в хорошем качестве
    За полчаса до весны смотреть онлайн бесплатно в хорошем качестве


    Вы не можете начинать темы
    Вы не можете отвечать на сообщения
    Вы не можете редактировать свои сообщения
    Вы не можете удалять свои сообщения
    Вы не можете голосовать в опросах
    Вы не можете прикреплять файлы к сообщениям
    Вы можете скачивать файлы