Ссылка на приватное зеркало нашего сайта всего за 1$. Внимание количество ограничено!!!

2 сезон

iTunes

1 сезон

1

2 сезон

2 сезон

iTunes

1 сезон

RePack

30

Ultimate

ВАЖНО

ИГРА 18+

pack

RePack

MK11
pack

Забери бонус

RePack

jed

!!Акция!!

Alien_Rage

RePack

fifa19

RePack

Assassins Creed: Odyssey

RePack

NEED FOR SPEED™ PAYBACK

4 сезон

9 сезон

Бесстыжие 9 сезон

Все сериалы

все сериалы на PB.wtf

RePack

FAR CRY 5
  

Шесть / Шестой отряд / Six / 1 сезон / Серии 1-8 из 8 (Лесли Линка Глаттер, Микаэл Саломон) [2017, боевик, драма, военный, история, WEB-DLRip] MVO [NewStudio] pb.wtf

Шесть через торрент pb.wtf

Размер: 3.9 GB | Добавлен: 3 года 8 мес. назад | Торрент скачан:12 раз
Скачать  

25-02-2017 20:35 Шесть Скачать торрент  

Шесть / Шестой отряд / Six
Год выпуска: 2017
Страна: США
Жанр: боевик, драма, военный, история
Всего серий: 8
Продолжительность: 8 x ~ 00:43:00
Перевод: Профессиональный многоголосый -
Субтитры: отсутствуют

Режиссер: Лесли Линка Глаттер, Микаэл Саломон

rating

В ролях:

Бэрри Слоун, Кайл Шмид, Хуан Пабло Раба, Эдвин Ходж, Брианна Дэвис, Надин Веласкес, Доминик Адамс, Уолтон Гоггинс, Джейлен Мур

Описание:

Военный сериал «Six» рассказывает о деятельности т.н. «SEAL Team Six» - «морских котиках» ВМС США и вдохновлён славной историей этого специального подразделения. Эта группа быстрого развёртывания принимает участие в самых сложных антитеррористических операциях, проводимых Америкой в различных частях света. В том числе, её бойцы участвовали в уничтожении Бен Ладена. Характерно, что конкретные детали деятельности группы, как правило, не комментируются ни Белым Домом, ни Министерством обороны. Отделение по специальным миссиям, как ещё называют «SEAL Team Six» в американских СМИ, тесно сотрудничает с ЦРУ, что говорит о специфике его деятельности

Качество: WEB-DLRip
Формат: AVI
Видео кодек: XviD
Аудио кодек: MP3

Видео: 720x400 (1.80:1), 23.976 fps, XviD build 64 ~1440 kbps avg, 0.21 bit/pixel
Аудио#1: Rus: 48 kHz, MPEG Layer 3, 2 ch, ~128.00 kbps avg (NewStudio)
Аудио#2: Eng: 48 kHz, MPEG Layer 3, 2 ch, ~128.00 kbps avg (original)

Перевод: Алексей Матвеев

Внимание! Раздача ведётся путём добавления новых серий; при каждом добавлении создаётся новый торрент. Чтобы начать докачку новой серии, пользователям необходимо сделать следующее:
(1) остановить скачивание,
(2) удалить старый торрент у себя из клиента (старые серии удалять не надо),
(3) скачать новый торрент и запустить его у себя в клиенте вместо старого, при этом указать клиенту путь в старую папку куда и должно происходить скачивание новых серий.

Ваш клиент при этом должен произвести хеширование (проверку) старой папки (если не производит сам - помогите ему сделать это), и будет докачивать только те серии которых у вас ещё нет. Старые серии при этом не удаляются, а продолжают раздаваться!

Eсли вы уже удалили старые серии, то предотвратить повторную закачку старых серий можно, отжав галочку в соответствующих местах при запуске нового торрента. По возможности, желательно не удалять старые серии как можно дольше, чтобы релизёр не столько продолжал раздавать старые серии, а смог сконцентрироваться на новых.
скриншот   скриншот   скриншот   скриншот  
бщее
Полное имя : C:\Six (Season 01) NewStudio\Six.s01e01.WEBDLRip.NS.avi
Формат : AVI
Формат/Информация : Audio Video Interleave
Размер файла : 500 Мбайт
Продолжительность : 41 м. 4 с.
Общий поток : 1701 Кбит/сек
Программа кодирования : VirtualDubMod 1.5.10.3 | www.virtualdub-fr.org || (build 2550/release)
Библиотека кодирования : VirtualDubMod build 2550/release

Видео
Идентификатор : 0
Формат : MPEG-4 Visual
Профиль формата : Advanced Simple@L5
Параметр BVOP формата : 1
Параметр QPel формата : Нет
Параметр GMC формата : Без точки перехода
Параметр матрицы формата : Default (MPEG)
Идентификатор кодека : XVID
Идентификатор кодека/Подсказка : XviD
Продолжительность : 41 м. 4 с.
Битрейт : 1431 Кбит/сек
Ширина : 720 пикселей
Высота : 400 пикселей
Соотношение сторон : 16:9
Частота кадров : 23,976 (23976/1000) кадра/сек
Цветовое пространство : YUV
Субдискретизация насыщенности : 4:2:0
Битовая глубина : 8 бит
Тип развёртки : Прогрессивная
Метод сжатия : С потерями
Бит/(Пиксели*Кадры) : 0.207
Размер потока : 421 Мбайт (84%)
Библиотека кодирования : XviD 73

Аудио #1
Идентификатор : 1
Формат : MPEG Audio
Версия формата : Version 1
Профиль формата : Layer 3
Режим : Joint stereo
Расширение режима : MS Stereo
Идентификатор кодека : 55
Идентификатор кодека/Подсказка : MP3
Продолжительность : 41 м. 4 с.
Вид битрейта : Постоянный
Битрейт : 128 Кбит/сек
Каналы : 2 канала
Частота : 48,0 КГц
Метод сжатия : С потерями
Размер потока : 37,6 Мбайт (8%)
Выравнивание : Соединение по промежуткам
Продолжительность промежутка : 42 мс. (1,00 видеокадр)
Время предзагрузки промежутка : 504 мс.

Аудио #2
Идентификатор : 2
Формат : MPEG Audio
Версия формата : Version 1
Профиль формата : Layer 3
Режим : Joint stereo
Расширение режима : MS Stereo
Идентификатор кодека : 55
Идентификатор кодека/Подсказка : MP3
Продолжительность : 41 м. 4 с.
Вид битрейта : Постоянный
Битрейт : 128 Кбит/сек
Каналы : 2 канала
Частота : 48,0 КГц
Метод сжатия : С потерями
Размер потока : 37,6 Мбайт (8%)
Выравнивание : Соединение по промежуткам
Продолжительность промежутка : 42 мс. (1,00 видеокадр)
Время предзагрузки промежутка : 504 мс.
pb.wtf



Скачать Шесть через торрент http://s019.radikal.ru/i609/1702/ea/d9968b59e52b.png Скачать фильм Шесть через торрент бесплантно в хорошем качестве Описание: Военный сериал «Six» рассказывает о деятельности т.н. «SEAL Team Six» - «морских котиках» ВМС США и вдохновлён славной историей ... 7.8 10 4
Торрент: Зарегистрирован [2017-03-14 19:30] · скачан: 12 раз
Статус: √ проверено
Размер: 3.9 GB
Как cкачать? Как скачать Шесть через торрент | qTorrent

% Раздел Тема Автор DL S | L
Зарубежные сериалы [ 5.99 GB ] Шесть / Шестой отряд / Six / Сезон 1 / Серии 1-8 из 8 [2017 военный WEB-DLRip-AVC] MVO [BaibaKo] GEKADOL Скачать
1 | 0

28-11-2019 20:33  

Отключить всю рекламу на сайте

    Дорогой пользователь! Огромная просьба, поблагодарите релизера, оцените раздачу и оставьте свои комментарий, если Вы скачали Шесть через торрент бесплатно! Внесите свою лепту в развитие PiratBit!
    Комментировать посты могут только пользователи прошедшие не сложную регистрацию
    Показать сообщения:    

    Шесть через торрент
    Скачать бесплатно Шесть
    Шесть скачать торрент
    Шесть смотреть онлайн
    Cкачать фильм Шесть бесплатно
    Шесть скачать торрент в хорошем качестве
    Шесть смотреть онлайн бесплатно в хорошем качестве


    Вы не можете начинать темы
    Вы не можете отвечать на сообщения
    Вы не можете редактировать свои сообщения
    Вы не можете удалять свои сообщения
    Вы не можете голосовать в опросах
    Вы не можете прикреплять файлы к сообщениям
    Вы можете скачивать файлы