Присоединяйтесь к нам в Telegram!, здесь всегда актуальный адрес сайта, оперативная поддержка и многое другое!!

>

5.9

iTunes

7.4

iTunes

9.4

1 сезон

1

7.4

2 сезон

7.2

iTunes

7.3

1 сезон

13

6.1

iTunes

8.3

GOG

30

ULTIMATE

pack

9.9

Лицензия

ВАЖНО

ИГРА 18+

pack

7.3

RePack

MK11

7.7

RePack

jed

7.8

RePack

fifa19

8.5

RePack

RDR2

RePack

NEED FOR SPEED™ PAYBACK

5 сезон

9 сезон

Бесстыжие 9 сезон

Все сериалы

все сериалы на PB.wtf

RePack

FAR CRY 5

Anonymous, добрый вечер, мы катастрофически не успеваем собрать деньги на оплату серверов, помогите нам пожалуйста 5,10,15р., для нас важна любая помощь . В качестве благодарности мы отключим Вам всю рекламу на сайте (укажите свой ник в строку Ваше имя)!

×
  
Magnet ссылка

Патриот / Patriot / Сезон 1 / Серии: 1-10 из 10 (Стив Конрад / Steve Conrad, Такер Гейтс / Tucker Gates, Тед Гриффин / Ted Griffin) [2017, США, триллер, комедия, WEBRip-AVC] MVO [BaibaKo] pb.wtf

Патриот через торрент pb.wtf

Размер: 10.39 GB | Добавлен: 4 года 9 мес. назад | Торрент скачан:16 раз
Смотреть онлайн Патриот | Скачать    Ребята, помогите собрать деньги на оплату серверов!!!

26-02-2017 04:38 Патриот Скачать торрент  

Патриот / Patriot


  • Год выпуска: 2017
  • Страна: США
  • Жанр: триллер, комедия
  • Продолжительность: 00:56:35 (Серия)
  • Перевод: Профессиональный многоголосый [BaibaKo]
  • Режиссер: Стив Конрад / Steve Conrad, Такер Гейтс / Tucker Gates, Тед Гриффин / Ted Griffin
  • В ролях:

    Майкл Дорман (John Tavner), Майкл Чернус (Edward Tavner), Терри О’Куинн (Tom Tavner), Кэтлин Манро (Alice Tavner), Кертвуд Смит (Leslie Claret), Аилетт Офейм (Detective Agathe Albans), Крис Конрад (Dennis McClaren), Джулиан Ричингс (Mr. Wilters), Джил Беллоуз (Mr. Thorms), Маркус Тодзи (Stephen Tchoo), Алиетт Офейм (Agathe Albans), Тони Фицпатрик (Jack Birdbath)


  • Агент ЦРУ Джон Тавнер пытается не допустить превращения Ирана в ядерную державу.
  • Рейтинг:



  • Качество: WEBRip-AVC
  • Формат: :MPEG-4
  • Видео кодек: AVC
  • Аудио кодек: AC3
  • Видео: 1024x576 (16:9), 2000 kbps, 23,976 fps, 0,141 bpp
  • Аудио №1: русский / 5.1 / 48 kHz / 384 kbps / 16 bit |[BaibaKo]|
  • Аудио №2: английский / 5.1 / 48 kHz / 384 kbps / 16 bit
  • Релиз от: GEKADOL

    Внимание! Раздача ведётся путём добавления новых серий; при каждом добавлении создаётся новый торрент. Чтобы начать докачку новой серии, пользователям необходимо сделать следующее:
    (1) остановить скачивание,
    (2) удалить старый торрент у себя из клиента (старые серии удалять не надо),
    (3) скачать новый торрент и запустить его у себя в клиенте вместо старого, при этом указать клиенту путь в старую папку куда и должно происходить скачивание новых серий.
    Ваш клиент при этом должен произвести хеширование (проверку) старой папки (если не производит сам - помогите ему сделать это), и будет докачивать только те серии которых у вас ещё нет. Старые серии при этом не удаляются, а продолжают раздаваться!
    Eсли вы уже удалили старые серии, то предотвратить повторную закачку старых серий можно, отжав галочку в соответствующих местах при запуске нового торрента. По возможности, желательно не удалять старые серии как можно дольше чтобы релизёр не столько продолжал раздавать старые серии, а смог сконцентрироваться на новых.

    General
    Complete name : K:\Патриот (Patriot 1)\Patriot.s01e01.PROPER.WEBRip-AVC.Rus.Eng.BaibaKo.tv.mp4
    Format : MPEG-4
    Format profile : Base Media
    Codec ID : isom (isom/iso2/avc1/mp41)
    File size : 1.09 GiB
    Duration : 56 min
    Overall bit rate : 2 767 kb/s
    Writing application : XviD4PSP 7.0.358 DAILY
    HDVideo : Yes
    encoding_info : MATROSKA / WEBM > MP4 Произвольный / H264 > X264 CBR 2000kbps HQ / AC3 > AC3 CBR 384kbps / AC3 > AC3 CBR 384kbps

    Video
    ID : 1
    Format : AVC
    Format/Info : Advanced Video Codec
    Format profile : High@L4.1
    Format settings, CABAC : Yes
    Format settings, ReFrames : 4 frames
    Codec ID : avc1
    Codec ID/Info : Advanced Video Coding
    Duration : 56 min
    Bit rate : 2 000 kb/s
    Width : 1 024 pixels
    Height : 576 pixels
    Display aspect ratio : 16:9
    Frame rate mode : Constant
    Frame rate : 23.976 (24000/1001) FPS
    Color space : YUV
    Chroma subsampling : 4:2:0
    Bit depth : 8 bits
    Scan type : Progressive
    Bits/(Pixel*Frame) : 0.141
    Stream size : 802 MiB (72%)
    Writing library : x264 core 148 r2762M 90a61ec
    Encoding settings : cabac=1 / ref=3 / deblock=1:-1:-1 / analyse=0x3:0x133 / me=hex / subme=7 / psy=1 / psy_rd=1.00:0.20 / mixed_ref=1 / me_range=16 / chroma_me=1 / trellis=1 / 8x8dct=1 / cqm=0 / deadzone=21,11 / fast_pskip=1 / chroma_qp_offset=-3 / threads=5 / lookahead_threads=1 / sliced_threads=0 / nr=0 / decimate=1 / interlaced=0 / bluray_compat=0 / constrained_intra=0 / bframes=3 / b_pyramid=2 / b_adapt=2 / b_bias=0 / direct=3 / weightb=1 / open_gop=0 / weightp=2 / keyint=230 / keyint_min=23 / scenecut=40 / intra_refresh=0 / rc_lookahead=40 / rc=cbr / mbtree=1 / bitrate=2000 / ratetol=1.0 / qcomp=0.60 / qpmin=0 / qpmax=69 / qpstep=4 / vbv_maxrate=2000 / vbv_bufsize=30000 / nal_hrd=none / filler=0 / ip_ratio=1.40 / aq=1:1.00

    Audio #1
    ID : 2
    Format : AC-3
    Format/Info : Audio Coding 3
    Mode extension : CM (complete main)
    Format settings, Endianness : Big
    Codec ID : ac-3
    Duration : 56 min
    Bit rate mode : Constant
    Bit rate : 384 kb/s
    Channel(s) : 6 channels
    Channel positions : Front: L C R, Side: L R, LFE
    Sampling rate : 48.0 kHz
    Frame rate : 31.250 FPS (1536 spf)
    Bit depth : 16 bits
    Compression mode : Lossy
    Stream size : 154 MiB (14%)
    Language : Russian
    Default : Yes
    Alternate group : 1

    Audio #2
    ID : 3
    Format : AC-3
    Format/Info : Audio Coding 3
    Mode extension : CM (complete main)
    Format settings, Endianness : Big
    Codec ID : ac-3
    Duration : 56 min
    Bit rate mode : Constant
    Bit rate : 384 kb/s
    Channel(s) : 6 channels
    Channel positions : Front: L C R, Side: L R, LFE
    Sampling rate : 48.0 kHz
    Frame rate : 31.250 FPS (1536 spf)
    Bit depth : 16 bits
    Compression mode : Lossy
    Stream size : 154 MiB (14%)
    Language : English
    Default : No
    Alternate group : 1



    Скриншоты:
    скриншот   скриншот   скриншот   скриншот   скриншот   скриншот   скриншот  
    скриншот  

    Раздача ведётся путём добавления новых серий. Добавлена 10 серия (28.01.2017).Просьба перекачать торрент файл.

    pb.wtf



  • Скачать Патриот через торрент http://i89.fastpic.ru/big/2017/0226/25/8ed45589e0ac26f2e8e68b13c3b17b25.jpg Скачать, смотреть онлайн Патриот бесплантно в хорошем качестве qw.png Агент ЦРУ Джон Тавнер пытается не допустить превращения Ирана в ядерную ... 10 10 4
    Info! Золотая раздача, скачанное не засчитывается.
    Торрент: Зарегистрирован [2017-02-28 01:20] · скачан: 16 раз
    Статус: √ проверено
    Размер: 10.39 GB
    Как cкачать? Как скачать Патриот через торрент | UTorrent

    % Раздел Тема Автор DL S | L
    Зарубежные сериалы [ 15.01 GB ] Патриот / Patriot / Сезон: 1 / Серии: 1-10 из 10 [2017 WEBRip 720p] [MVO] killermax2013 Скачать
    1 | 0
    Зарубежные сериалы [ 12.11 GB ] Патриот / Patriot / Сезон: 2 / Серии: 1-8 из 8 [2018 WEBRip 1080p] MVO [TVShows] bober100 Скачать
    1 | 0

    28-11-2019 20:33  

    Отключить всю рекламу на сайте

    28-02-2017 01:21 Патриот Скачать торрент  

    В раздаче две первых серии!!!!! Версии 2015 и 2017 годов. pb.wtf



      Дорогой пользователь! Огромная просьба, поблагодарите релизера, оцените раздачу и оставьте свои комментарий, если Вы скачали Патриот через торрент бесплатно!
      Комментировать посты могут только пользователи прошедшие не сложную регистрацию
      Показать сообщения:    

      Патриот через торрент
      Скачать бесплатно Патриот
      Патриот скачать торрент
      Патриот смотреть онлайн
      Cкачать фильм Патриот бесплатно
      Патриот скачать торрент в хорошем качестве
      Патриот смотреть онлайн бесплатно в хорошем качестве


      Вы не можете начинать темы
      Вы не можете отвечать на сообщения
      Вы не можете редактировать свои сообщения
      Вы не можете удалять свои сообщения
      Вы не можете голосовать в опросах
      Вы не можете прикреплять файлы к сообщениям
      Вы можете скачивать файлы