Ссылка на приватное зеркало нашего сайта всего за 1$. Внимание количество ограничено!!!

2 сезон

iTunes

1 сезон

1

iTunes

iTunes

iTunes

1 сезон

RePack

30

ИГРА 18+

pack

ВАЖНО

!!Акция!!

Alien_RageХит недели

RePack

MK11
pack

Забери бонус

RePack

jed

!!Акция!!

Alien_Rage

RePack

fifa19

RePack

Assassins Creed: Odyssey

RePack

NEED FOR SPEED™ PAYBACK

4 сезон

9 сезон

Бесстыжие 9 сезон

Все сериалы

все сериалы на PB.wtf

RePack

FAR CRY 5
  

Дюна (Расширенная версия) / Dune (Extended version) (Дэвид Линч) [1984, фантастика, боевик, приключения, BDRip 1080p by msltel] DVO pb.wtf

Дюна через торрент pb.wtf

Качают: 1 [ 0 KB/s ]
Размер: 16.84 GB | Добавлен: 3 года 8 мес. назад | Торрент скачан:130 раз
Скачать  

27-02-2017 07:02 Дюна Скачать торрент  

Название: Дюна
Оригинальное название: Dune
Год выпуска: 1984
Страна: США
Жанр: фантастика, боевик, приключения
Продолжительность: 02:57:14
Перевод: профессиональный двухголосый

Режиссёр: Дэвид Линч

В ролях: Кайл МакЛахлан, Юрген Прохнов, Франческа Эннис, Патрик Стюарт, Ричард Джордан, Фредди Джонс, Дин Стокуэлл, Кеннет МакМиллан, Стинг, Леонардо Чимино

Описание: 10191 год. Планета Арракис, также известная под названием Дюна, - арена борьбы между злом и благородством, мир тончайших и опаснейших интриг. Гигантские песчаные черви длиной в целую милю сторожат бесценное сокровище — меланжевую пряность, позволяющую путешествовать сквозь пространство и время. Народ Дюны ожидает пришествия Мессии, который поведёт их на священную войну против династии злобных Харконненов. И Мессия является. Им становится юный Пол Атрейдес, сын герцога Лито, предательски убитого Харконненами с одобрения Императора. Полу предстоит великая миссия, которая навсегда изменит судьбу всей галактической империи… Фильм по роману Фрэнка Герберта «Дюна» (1964г.).



Качество: BDRip 1080p
Формат: MKV
Видео: MPEG-4 AVC, 11.6 Mбит/с, 1920x800, 23,976 кадра/с
Аудио 1: русский, AC3, 448 kbps, 6 ch, 48 kHz [профессиональный двухголосый, Tycoon]
Аудио 2: английский, DTS, 1509 kbps, 6 ch, 48 kHz [оригинал]
Субтитры: русские
Общее
Уникальный идентификатор : 252370555067524146477349134551030111449 (0xBDDCCD0858DE39E091D4E1011D8B1CD9)
Полное имя : D:\Video\Dune.ExtCut.1984.BDRip.1080p by msltel.mkv
Формат : Matroska
Версия формата : Version 4 / Version 2
Размер файла : 16,8 Гбайт
Продолжительность : 2 ч. 57 м.
Общий поток : 13,6 Мбит/сек
Название фильма : Rip by msltel
Дата кодирования : UTC 2017-02-27 05:05:44
Программа кодирования : mkvmerge v8.2.0 ('World of Adventure') 64bit
Библиотека кодирования : libebml v1.3.1 + libmatroska v1.4.2

Видео
Идентификатор : 1
Формат : AVC
Формат/Информация : Advanced Video Codec
Профиль формата : High@L4.1
Параметр CABAC формата : Да
Параметр ReFrames формата : 4 кадра
Идентификатор кодека : V_MPEG4/ISO/AVC
Продолжительность : 2 ч. 57 м.
Битрейт : 11,6 Мбит/сек
Ширина : 1920 пикселей
Высота : 800 пикселей
Соотношение сторон : 2,40:1
Режим частоты кадров : Постоянный
Частота кадров : 23,976 (24000/1001) кадра/сек
Цветовое пространство : YUV
Субдискретизация насыщенности : 4:2:0
Битовая глубина : 8 бит
Тип развёртки : Прогрессивная
Бит/(Пиксели*Кадры) : 0.316
Размер потока : 14,4 Гбайт (86%)
Библиотека кодирования : x264 core 146 r2538 121396c
Настройки программы : cabac=1 / ref=4 / deblock=1:-3:-2 / analyse=0x3:0x113 / me=umh / subme=11 / psy=1 / psy_rd=1.00:0.15 / mixed_ref=1 / me_range=32 / chroma_me=1 / trellis=2 / 8x8dct=1 / cqm=0 / deadzone=21,11 / fast_pskip=0 / chroma_qp_offset=-3 / threads=6 / lookahead_threads=1 / sliced_threads=0 / nr=0 / decimate=1 / interlaced=0 / bluray_compat=0 / constrained_intra=0 / bframes=10 / b_pyramid=2 / b_adapt=2 / b_bias=0 / direct=1 / weightb=1 / open_gop=0 / weightp=2 / keyint=230 / keyint_min=23 / scenecut=40 / intra_refresh=0 / rc_lookahead=40 / rc=crf / mbtree=0 / crf=17.8 / qcomp=0.60 / qpmin=0 / qpmax=69 / qpstep=4 / vbv_maxrate=62500 / vbv_bufsize=78125 / crf_max=0.0 / nal_hrd=none / filler=0 / ip_ratio=1.40 / pb_ratio=1.30 / aq=1:1.00
Язык : English
Default : Да
Forced : Нет

Аудио #1
Идентификатор : 2
Формат : AC-3
Формат/Информация : Audio Coding 3
Расширение режима : CM (complete main)
Параметр Endianness формата : Big
Идентификатор кодека : A_AC3
Продолжительность : 2 ч. 57 м.
Вид битрейта : Постоянный
Битрейт : 448 Кбит/сек
Каналы : 6 каналов
Расположение каналов : Front: L C R, Side: L R, LFE
Частота : 48,0 КГц
Частота кадров : 31,250 кадров/сек (1536 spf)
Битовая глубина : 16 бит
Метод сжатия : С потерями
Размер потока : 568 Мбайт (3%)
Заголовок : DVO (Tycoon)
Язык : Russian
Default : Да
Forced : Нет

Аудио #2
Идентификатор : 3
Формат : DTS
Формат/Информация : Digital Theater Systems
Режим : 16
Параметр Endianness формата : Big
Идентификатор кодека : A_DTS
Продолжительность : 2 ч. 57 м.
Вид битрейта : Постоянный
Битрейт : 1509 Кбит/сек
Каналы : 6 каналов
Расположение каналов : Front: L C R, Side: L R, LFE
Частота : 48,0 КГц
Частота кадров : 93,750 кадра/сек (512 spf)
Битовая глубина : 16 бит
Метод сжатия : С потерями
Размер потока : 1,87 Гбайт (11%)
Заголовок : original
Язык : English
Default : Нет
Forced : Нет

Текст
Идентификатор : 4
Формат : UTF-8
Идентификатор кодека : S_TEXT/UTF8
Идентификатор кодека/Информация : UTF-8 Plain Text
Продолжительность : 2 ч. 50 м.
Битрейт : 68 бит/сек
Count of elements : 1702
Размер потока : 86,0 Кбайт (0%)
Заголовок : русские
Default : Да
Forced : Нет
pb.wtf



Скачать Дюна через торрент http://s45.radikal.ru/i110/1702/43/1f50a91b7a76.jpg Скачать фильм Дюна через торрент бесплантно в хорошем качестве Описание: 10191 год. Планета Арракис, также известная под названием Дюна, - арена борьбы между злом и благородством, мир тончайших и ... 9.4 10 14
Info! Золотая раздача, скачанное не засчитывается.
Торрент: Зарегистрирован [2017-02-27 07:02] · скачан: 130 раз
Статус: √ проверено
Размер: 16.84 GB
Как cкачать? Как скачать Дюна через торрент | qTorrent

% Раздел Тема Автор DL S | L
Фильмы [HD 720p, 1080p] (Хороший звук DUB, MVO) [ 10.31 GB ] Дюна / Dune [1984 BDRip 720p 3 x MVO DVO 3 x AVO] от ExKinoRay morfyi Скачать
1 | 0
Фильмы до 2000 г. [ 4.61 GB ] Дюна / Dune [1984 BDRip-AVC 3 x MVO DVO 3 x AVO] от ExKinoRay morfyi Скачать
2 | 0
Фильмы [HD 720p, 1080p] (Хороший звук DUB, MVO) [ 6.76 GB ] Дюна / Dune [1984 BDRip 720p by msltel] DVO msltel Скачать
1 | 0
Арт-хаус и авторское кино [ 2.8 GB ] Дюна / Dune [1984 HDRip] [Расширенная версия] DVO + Sub Rus + Original Eng fedorovich.timofey Скачать
1 | 0

28-11-2019 20:33  

Отключить всю рекламу на сайте

27-02-2017 14:16 Дюна Скачать торрент  

Не фига себе, какая глубокая классика. Клевоpb.wtf



27-02-2017 16:02 Дюна Скачать торрент  

полюбому качаю ))) спасибоpb.wtf



27-02-2017 16:02 Дюна Скачать торрент  

пару раз пытался посмотреть его по телеку .несмог досмотреть pb.wtf



27-02-2017 17:13 Дюна Скачать торрент  

нуб писал(а):

пару раз пытался посмотреть его по телеку .несмог досмотреть

Такая же история усыпаеш насмертьpb.wtf



01-03-2017 01:56 Дюна Скачать торрент  

Смотрел его году в 93, на кассете кто то раздобыл с гнусавым переводом, был просто в трансе, кассету забрали, а я еще долго хотел его посмотреть еще раз, а вот смотрю и совсем нет тех чувств что раньше. пичаль!pb.wtf



02-04-2018 15:19 Дюна Скачать торрент  

Дайте скачать :) Никого нетpb.wtf



    Дорогой пользователь! Огромная просьба, поблагодарите релизера, оцените раздачу и оставьте свои комментарий, если Вы скачали Дюна через торрент бесплатно! Внесите свою лепту в развитие PiratBit!
    Комментировать посты могут только пользователи прошедшие не сложную регистрацию
    Показать сообщения:    

    Дюна через торрент
    Скачать бесплатно Дюна
    Дюна скачать торрент
    Дюна смотреть онлайн
    Cкачать фильм Дюна бесплатно
    Дюна скачать торрент в хорошем качестве
    Дюна смотреть онлайн бесплатно в хорошем качестве


    Вы не можете начинать темы
    Вы не можете отвечать на сообщения
    Вы не можете редактировать свои сообщения
    Вы не можете удалять свои сообщения
    Вы не можете голосовать в опросах
    Вы не можете прикреплять файлы к сообщениям
    Вы можете скачивать файлы