Ссылка на приватное зеркало нашего сайта всего за 1$. Внимание количество ограничено!!!

2 сезон

iTunes

1 сезон

1

2 сезон

2 сезон

iTunes

1 сезон

RePack

30

Ultimate

ВАЖНО

ИГРА 18+

pack

RePack

MK11
pack

Забери бонус

RePack

jed

!!Акция!!

Alien_Rage

RePack

fifa19

RePack

Assassins Creed: Odyssey

RePack

NEED FOR SPEED™ PAYBACK

4 сезон

9 сезон

Бесстыжие 9 сезон

Все сериалы

все сериалы на PB.wtf

RePack

FAR CRY 5
  

В пустыне смерти / Into the Badlands / Сезон: 1 / Серии: 1-6 (6) (Дэвид Добкин) [2015, боевик, приключения, BDRemux 1080p] 3х [MVO] (NewStudio, AMC, LostFilm) pb.wtf

В пустыне смерти через торрент pb.wtf

Размер: 53.28 GB | Добавлен: 3 года 8 мес. назад | Торрент скачан:54 раза
Скачать  

27-02-2017 09:29 В пустыне смерти Скачать торрент  


В пустыне смерти / Into the Badlands
Год выпуска: 2015
Страна: США
Жанр: Боевик, драма, приключения.
Продолжительность: 00:42:00
Перевод #1: Профессиональный (многоголосый закадровый) NewStudio
Перевод #2: Профессиональный (многоголосый закадровый) AMC
Перевод #3: Профессиональный (многоголосый закадровый) LostFilm

Субтитры: нет

Режиссёр: Дэвид Добкин

В ролях: Эмили Бичем, Сара Болгер, Орла Брэйди, Мартон Чокаш, Элли Иоаннидес, Арамис Найт, Мадлен Манток, Майкл Сил, Оливер Старк, Дэниэл Ву и др.
Описание:

Приключенческий боевик о двух друзьях. В пустыне смерти, какие испытания предстоит пройти главным героям на пути просвещения. Ради обретения высшей мудрости мастер боевых искусств Санни и его юный напарник решают пройти через неизведанные земли. Они знают, что там их будут встречать враждебно, но ради высшей цели главные герои готовы вынести всё. В основу сюжета сериала был положен китайский роман под названием «Путешествие на Запад». Во время путешествия Санни покажет в полной мере своё мастерство, а его юный друг сможет многому научиться, и владению собственным телом, и контролю над собственным духом.



Качество: BDRemux 1080p
Контейнер: MKV
Видео: MPEG-4 AVC / 27700 kbps / 1920:1080p / 23.976 fps / 16:9
Аудио 1: Русский AC3, 48 kHz 6 ch, 448 kbps - NewStudio
Аудио 2: Русский AC3, 48 kHz 2 ch, 192 kbps - AMC
Аудио 3: Русский AC3, 48 kHz 2 ch, 384 kbps - LostFilm
Аудио 4: Английский TRUE HD 48 kHz 6 ch, 2415 kbps
01. Форт (The Fort)
02. Кулак словно пуля (Fist Like A Bullet)
03. Белый аист расправляет крылья (White Stork Spreads Wings)
04. Два тигра покоряют дракона (Two Tigers Subdue Dragons)
05. Змея подползает (Snake Creeps Down)
06. Рука пяти ядов (Hand Of Five Poisons)
Полное имя : .........................................Into.The.Badlands.s01e01.BDRemux.mkv
Формат : Matroska
Версия формата : Version 4 / Version 2
Размер файла : 9,19 Гбайт
Продолжительность : 49 м.
Режим общего битрейта : Переменный
Общий поток : 26,7 Мбит/сек
Дата кодирования : UTC 2017-02-26 10:30:17
Программа кодирования : mkvmerge v9.7.1 ('Pandemonium') 64bit
Библиотека кодирования : libebml v1.3.4 + libmatroska v1.4.5
DURATION : 00:43:54.400000000
NUMBER_OF_FRAMES : 82325
NUMBER_OF_BYTES : 147526400
_STATISTICS_WRITING_APP : mkvmerge v9.7.1 ('Pandemonium') 64bit
_STATISTICS_WRITING_DATE_UTC : 2017-02-26 10:30:17
_STATISTICS_TAGS : BPS DURATION NUMBER_OF_FRAMES NUMBER_OF_BYTES
Видео
Идентификатор : 1
Формат : AVC
Формат/Информация : Advanced Video Codec
Профиль формата : High@L4.1
Параметр CABAC формата : Да
Параметр ReFrames формата : 4 кадра
Идентификатор кодека : V_MPEG4/ISO/AVC
Продолжительность : 49 м.
Вид битрейта : Переменный
Максимальный битрейт : 30,0 Мбит/сек
Ширина : 1920 пикселей
Высота : 1080 пикселей
Соотношение сторон : 16:9
Режим частоты кадров : Постоянный
Частота кадров : 23,976 кадра/сек
Цветовое пространство : YUV
Субдискретизация насыщенности : 4:2:0
Битовая глубина : 8 бит
Тип развёртки : Прогрессивная
Default : Да
Forced : Нет
Аудио #1
Идентификатор : 2
Формат : AC-3
Формат/Информация : Audio Coding 3
Расширение режима : CM (complete main)
Параметр Endianness формата : Big
Идентификатор кодека : A_AC3
Продолжительность : 49 м.
Вид битрейта : Постоянный
Битрейт : 448 Кбит/сек
Каналы : 6 каналов
Расположение каналов : Front: L C R, Side: L R, LFE
Частота : 48,0 КГц
Битовая глубина : 16 бит
Метод сжатия : С потерями
Размер потока : 158 Мбайт (2%)
Заголовок : NewStudio
Язык : Russian
Default : Да
Forced : Нет
Аудио #2
Идентификатор : 3
Формат : AC-3
Формат/Информация : Audio Coding 3
Расширение режима : CM (complete main)
Параметр Endianness формата : Big
Идентификатор кодека : A_AC3
Продолжительность : 49 м.
Вид битрейта : Постоянный
Битрейт : 192 Кбит/сек
Каналы : 2 канала
Расположение каналов : Front: L R
Частота : 48,0 КГц
Битовая глубина : 16 бит
Метод сжатия : С потерями
Размер потока : 67,7 Мбайт (1%)
Заголовок : AMC
Язык : Russian
Default : Нет
Forced : Нет
Аудио #3
Идентификатор : 4
Формат : AC-3
Формат/Информация : Audio Coding 3
Расширение режима : CM (complete main)
Параметр Endianness формата : Big
Идентификатор кодека : A_AC3
Продолжительность : 49 м.
Вид битрейта : Постоянный
Битрейт : 384 Кбит/сек
Каналы : 2 канала
Расположение каналов : Front: L R
Частота : 48,0 КГц
Битовая глубина : 16 бит
Метод сжатия : С потерями
Размер потока : 135 Мбайт (1%)
Заголовок : LostFilm
Язык : Russian
Default : Нет
Forced : Нет
Аудио #4
Идентификатор : 5
Формат : TrueHD
Идентификатор кодека : A_TRUEHD
Продолжительность : 49 м.
Вид битрейта : Переменный
Максимальный битрейт : 2415 Кбит/сек
Каналы : 6 каналов
Расположение каналов : Front: L C R, Side: L R, LFE
Частота : 48,0 КГц
Метод сжатия : Без потерь
Язык : English
Default : Нет
Forced : Нет
pb.wtf



Скачать В пустыне смерти через торрент http://i91.fastpic.ru/big/2017/0227/b0/dc3befd2fb8ab9eab0435965509868b0.png Скачать фильм В пустыне смерти через торрент бесплантно в хорошем качестве Описание:Приключенческий боевик о двух друзьях. В пустыне смерти, какие испытания предстоит пройти главным героям на пути просвещения. Ради ... 9.2 10 6
Info! Золотая раздача, скачанное не засчитывается.
Торрент: Зарегистрирован [2017-02-27 09:29] · скачан: 54 раз
Статус: √ проверено
Размер: 53.28 GB
Как cкачать? Как скачать В пустыне смерти через торрент | qTorrent

% Раздел Тема Автор DL S | L
Зарубежные сериалы [ 19.17 GB ] В пустыне смерти / Into the Badlands / Сезон: 1 / Серии: 1-6 [2015 BDRip-HEVC 1080p ] 3xMVO [NewStudio AMC LostFilm] bober100 Скачать
1 | 0
Фильмы с украинским озвучиванием [ 10.14 GB ] В пустыне смерти / Into the Badlands / Сезон: 1 / Серии: 1-6 из 6 [2015 WEB-DL 1080p] [Ukr MVO] killermax2013 Скачать
1 | 0
Зарубежные сериалы [ 7.94 GB ] В пустыне смерти / Into the Badlands / Сезон: 1 / Серии: 1-6 из 6 [2015 экранизация WEB-DL 720p] MVO AMC diletant Скачать
1 | 0
Зарубежные сериалы [ 10.81 GB ] В пустыне смерти / Into the Badlands / Сезон: 1 / Серии: 1-6 из 6 [2015 экранизация WEB-DL 1080p] MVO LostFilm MicroCharmelle Скачать
1 | 0
Зарубежные сериалы [ 5.49 GB ] В пустыне смерти / Into the Badlands / Сезон: 1/ Серии: 1-6 [2015 WEB-DLRip-AVC] 2x[MVO] killermax2013 Скачать
1 | 1
Зарубежные сериалы [ 3.22 GB ] В пустыне смерти / Into the Badlands / Сезон: 1 / Серии: 1-6 из 6 [2015 экранизация WEB-DLRip] MVO + Original P.N.L. Скачать
1 | 0


Последний раз редактировалось: killermax2013 (2017-02-27 11:47), всего редактировалось 1 раз

28-11-2019 20:33  

Отключить всю рекламу на сайте

    Дорогой пользователь! Огромная просьба, поблагодарите релизера, оцените раздачу и оставьте свои комментарий, если Вы скачали В пустыне смерти через торрент бесплатно! Внесите свою лепту в развитие PiratBit!
    Комментировать посты могут только пользователи прошедшие не сложную регистрацию
    Показать сообщения:    

    В пустыне смерти через торрент
    Скачать бесплатно В пустыне смерти
    В пустыне смерти скачать торрент
    В пустыне смерти смотреть онлайн
    Cкачать фильм В пустыне смерти бесплатно
    В пустыне смерти скачать торрент в хорошем качестве
    В пустыне смерти смотреть онлайн бесплатно в хорошем качестве


    Вы не можете начинать темы
    Вы не можете отвечать на сообщения
    Вы не можете редактировать свои сообщения
    Вы не можете удалять свои сообщения
    Вы не можете голосовать в опросах
    Вы не можете прикреплять файлы к сообщениям
    Вы можете скачивать файлы