2 сезон

iTunes

1 сезон

1

iTunes

iTunes

iTunes

1 сезон

RePack

30

ИГРА 18+

pack

ВАЖНО

!!Акция!!

Alien_RageХит недели

RePack

MK11
pack

Забери бонус

RePack

jed

!!Акция!!

Alien_Rage

RePack

fifa19

RePack

Assassins Creed: Odyssey

RePack

NEED FOR SPEED™ PAYBACK

4 сезон

9 сезон

Бесстыжие 9 сезон

Все сериалы

все сериалы на PB.wtf

RePack

FAR CRY 5
  

Екатерина. Взлет / Сезон: 2 / Серии: 1-2 из 12 (Дмитрий Иосифов) [2017, драма, мелодрама, история, биография, SATRip] pb.wtf

Скачать  

27-02-2017 15:59 Екатерина. Взлет Скачать торрент  

Екатерина. Взлет (сериал)
Год выпуска: 2017

Страна: Россия
Жанр: драма, мелодрама, история, биография
Продолжительность: 00:47:02
Режиссер: Дмитрий Иосифов
В ролях: Марина Александрова (Императрица Екатерина II), Павел Табаков (Павел I), Сергей Марин (граф Григорий Григорьевич Орлов), Владимир Яглыч (Григорий Александрович Потёмкин), Михаил Горевой (Степан Иванович Шешковский, тайный советник), Сергей Колтаков (Никита Иванович Панин), Любава Грешнова (Софья), Юрий Назаров, Леонид Кулагин (архиепископ Гавриил), Андрей Руденский, Сабрина Данченко (Шофранка), Игорь Стаценко (денщик Орлова)
Описание:
Екатерина Алексеевна царствует уже шестой год. Ей приходится бороться с угрозой войны, в то время как при дворе против нее зреет заговор. С государственными заботами тесно переплелись любовные интриги: за сердце Екатерины сражаются Григорий Орлов, отец ее незаконнорожденного сына, и молодой офицер Григорий Потемкин. Но Екатерина Вторая не стала бы Великой, если бы не нашла в себе силы преодолеть любые испытания...
Рейтинг:

Качество: SATRip
Формат: AVI
Видео: XviD, 720x400 (16:9), 1649 kbps, 25 fps, 0,229 bpp
Аудио: MP3 / 2.0 / 48 kHz / 192 kbps /

Код:

General
Complete name                            : Ekaterina.Vzlet.2017.SATRip.BigFANGroup\Ekaterina.Vzlet.01.seriya.XviD.SATRip.BigFANGroup.avi
Format                                   : AVI
Format/Info                              : Audio Video Interleave
File size                                : 623 MiB
Duration                                 : 47 min
Overall bit rate                         : 1 852 kb/s
Writing application                      : VirtualDubMod 1.5.10.3 | www.virtualdub-fr.org || (build 2550/release)
Writing library                          : VirtualDubMod build 2550/release

Video
ID                                       : 0
Format                                   : MPEG-4 Visual
Format profile                           : Advanced Simple@L5
Format settings, BVOP                    : 1
Format settings, QPel                    : No
Format settings, GMC                     : No warppoints
Format settings, Matrix                  : Default (MPEG)
Codec ID                                 : XVID
Codec ID/Hint                            : XviD
Duration                                 : 47 min
Bit rate                                 : 1 650 kb/s
Width                                    : 720 pixels
Height                                   : 400 pixels
Display aspect ratio                     : 16:9
Frame rate                               : 25.000 FPS
Color space                              : YUV
Chroma subsampling                       : 4:2:0
Bit depth                                : 8 bits
Scan type                                : Progressive
Compression mode                         : Lossy
Bits/(Pixel*Frame)                       : 0.229
Stream size                              : 555 MiB (89%)
Writing library                          : XviD 1.2.1 (UTC 2008-12-04)

Audio
ID                                       : 1
Format                                   : MPEG Audio
Format version                           : Version 1
Format profile                           : Layer 3
Codec ID                                 : 55
Codec ID/Hint                            : MP3
Duration                                 : 47 min
Bit rate mode                            : Constant
Bit rate                                 : 192 kb/s
Channel(s)                               : 2 channels
Sampling rate                            : 48.0 kHz
Compression mode                         : Lossy
Stream size                              : 64.6 MiB (10%)
Alignment                                : Aligned on interleaves
Interleave, duration                     : 40  ms (1.00 video frame)
Interleave, preload duration             : 504  ms
Writing library                          : LAME3.99r
Encoding settings                        : -m s -V 4 -q 2 -lowpass 18.6 -b 192

скриншот   скриншот   скриншот   скриншот  
При каждом добавлении создётся новый торрент. Чтобы начать докачку новой серии, пользователям необходимо сделать следующее:
1. Остановить скачивание.
2. Удалить старый торрент у себя из клиента (старые серии удалять не надо).
3. Скачать новый торрент и запустить его у себя в клиенте вместо старого, при этом указать клиенту путь в старую папку куда и должно происходить скачивание новых серий.
Ваш клиент при этом должен произвести хеширование (проверку) старой папки (если не производит сам - помогите ему сделать это), и будет докачивать только те серии которых у вас ещё нет. Старые серии при этом не удаляются, а продолжают раздаваться! Eсли вы уже удалили старые серии, то предотвратить повторную закачку старых серий можно, отжав галочку в соответсвующих местах при запуске нового торрента. По возможности, желательно не удалять старые серии как можно дольше чтобы релизёр не столько продолжал раздавать старые серии, а смог сконцентрироваться на новых.
pb.wtf



Торрент не зареган: Не зарегистрирован ||
Добавлен: 2017-02-27 15:59
Скачано: 0 раз
% Раздел Тема Автор DL S | L
Наши сериалы [ 5.9 GB ] Екатерина. Взлет / Сезон: 2 / Серии: 1-12 из 12 [2017 история биография WEB-DL 720p] SEVMASH Скачать
1 | 0
Наши сериалы [ 7.69 GB ] Екатерина. Взлет / Сезон: 2 / Серии: 1-12 из 12 [2017 история биография SATRip] SEVMASH Скачать
1 | 0

28-11-2019 20:33  

Отключить всю рекламу на сайте

    Дорогой пользователь! Огромная просьба, поблагодарите релизера, оцените раздачу и оставьте свои комментарий, если Вы скачали Екатерина. Взлет через торрент бесплатно! Внесите свою лепту в развитие PiratBit!
    Комментировать посты могут только пользователи прошедшие не сложную регистрацию
    Показать сообщения:    

    Екатерина. Взлет через торрент
    Скачать бесплатно Екатерина. Взлет
    Екатерина. Взлет скачать торрент
    Екатерина. Взлет смотреть онлайн
    Cкачать фильм Екатерина. Взлет бесплатно
    Екатерина. Взлет скачать торрент в хорошем качестве
    Екатерина. Взлет смотреть онлайн бесплатно в хорошем качестве


    Вы не можете начинать темы
    Вы не можете отвечать на сообщения
    Вы не можете редактировать свои сообщения
    Вы не можете удалять свои сообщения
    Вы не можете голосовать в опросах
    Вы не можете прикреплять файлы к сообщениям
    Вы можете скачивать файлы