Ссылка на приватное зеркало нашего сайта всего за 1$. Внимание количество ограничено!!!

2 сезон

iTunes

1 сезон

1

2 сезон

2 сезон

iTunes

1 сезон

RePack

30

Ultimate

ВАЖНО

ИГРА 18+

pack

RePack

MK11
pack

Забери бонус

RePack

jed

!!Акция!!

Alien_Rage

RePack

fifa19

RePack

Assassins Creed: Odyssey

RePack

NEED FOR SPEED™ PAYBACK

4 сезон

9 сезон

Бесстыжие 9 сезон

Все сериалы

все сериалы на PB.wtf

RePack

FAR CRY 5
  

Британские СС / SS-GB / Сезон: 1 / Серии 1-2 из ??? (Филипп Кадельбах) [2017, Боевик, драма, HDTVRip] [MVO] (SunshineStudio) pb.wtf

Британские СС через торрент pb.wtf

Размер: 1.41 GB | Добавлен: 3 года 8 мес. назад | Торрент скачан:23 раза
Скачать  

27-02-2017 17:22 Британские СС Скачать торрент  

Британские СС / SS-GB
Год выпуска: 2017
Жанр: Боевик, драма
Выпущено: Великобритания, BBC Films, Sid Gentle Films
Продолжительность: 1 x ~ 00:58:00
Перевод: Любительский (многоголосый) [SunshineStudio]

Режиссер: Филипп Кадельбах

В ролях: Сэм Райли, Кейт Босворт, Райнер Бок, Ларс Айдингер, Джеймс Космо, Мейв Дермоди, Джейсон Флеминг, Анейрин Барнард, Рональд Церфельд, Джонатан Касс

О фильме: Ноябрь 1941. Лондон. Британия оккупирована фашистами. Дуглас Арчер, известный в Лондоне сыщик, занимается расследованием убийств в Скотланд-Ярде. Хотя теперь начальство у Скотланд-Ярда другое, Дугласа угрызения совести не мучают — кто-то же должен ловить убийц, а в политику он не лезет. Но вот однажды утром Дуглас начинает расследовать одно загадочное убийство, которое выведет его и к Британскому Сопротивлению, и к разведкам разных держав, и в итоге — к очень большой политике.



Качество: HDTVRip
Формат: AVI
Видео кодек: XviD
Аудио кодек: AC3
Видео: 720x400 (1.80:1), 25.000 fps, XviD build 64 ~1600 kbps avg
Аудио: 48 kHz, AC3, 2 ch, ~192.00 kbps avg
General
Complete name : E:\SS-GB.S01.400p.SunshineStudio\SS-GB.S01E01.400p.SunshineStudio.avi
Format : AVI
Format/Info : Audio Video Interleave
File size : 769 MiB
Duration : 58mn 4s
Overall bit rate : 1 851 Kbps
Writing application : VirtualDubMod 1.5.10.3 | www.virtualdub-fr.org || (build 2550/release)
Writing library : VirtualDubMod build 2550/release

Video
ID : 0
Format : MPEG-4 Visual
Format profile : Advanced Simple@L5
Format settings, BVOP : 1
Format settings, QPel : No
Format settings, GMC : No warppoints
Format settings, Matrix : Default (H.263)
Codec ID : XVID
Codec ID/Hint : XviD
Duration : 58mn 4s
Bit rate : 1 649 Kbps
Width : 720 pixels
Height : 400 pixels
Display aspect ratio : 16:9
Frame rate : 25.000 fps
Color space : YUV
Chroma subsampling : 4:2:0
Bit depth : 8 bits
Scan type : Progressive
Compression mode : Lossy
Bits/(Pixel*Frame) : 0.229
Stream size : 685 MiB (89%)
Writing library : XviD 1.2.1 (UTC 2008-12-04)

Audio
ID : 1
Format : AC-3
Format/Info : Audio Coding 3
Mode extension : CM (complete main)
Format settings, Endianness : Big
Codec ID : 2000
Duration : 58mn 4s
Bit rate mode : Constant
Bit rate : 192 Kbps
Channel(s) : 2 channels
Channel positions : Front: L R
Sampling rate : 48.0 KHz
Compression mode : Lossy
Stream size : 79.7 MiB (10%)
Alignment : Split accross interleaves
Interleave, duration : 40 ms (1.00 video frame)
Interleave, preload duration : 500 ms
Внимание! Раздача ведётся путём добавления новых серий; при каждом добавлении создётся новый торрент. Чтобы начать докачку новой серии, пользователям необходимо сделать следующее: (1) остановить скачивание, (2) удалить старый торрент у себя из клиента (старые серии удалять не надо), (3) скачать новый торрент и запустить его у себя в клиенте вместо старого, при этом указать клиенту путь в старую папку куда и должно происходить скачивание новых серий.
Ваш клиент при этом должен произвести хеширование (проверку) старой папки (если не производит сам - помогите ему сделать это), и будет докачивать только те серии которых у вас ещё нет. Старые серии при этом не удаляются, а продолжают раздаваться!
Eсли вы уже удалили старые серии, то предотвратить повторную закачку старых серий можно, отжав галочку в соответсвующих местах при запуске нового торрента.
pb.wtf



Скачать Британские СС через торрент http://i89.fastpic.ru/big/2017/0227/b2/14de43621ac7814faa4c73c9ad95e8b2.jpeg Скачать фильм Британские СС через торрент бесплантно в хорошем качестве О фильме: Ноябрь 194 Лондон. Британия оккупирована фашистами. Дуглас Арчер, известный в Лондоне сыщик, занимается расследованием убийств ... 8.5 10 6
Торрент: Зарегистрирован [2017-03-03 18:22] · скачан: 23 раз
Статус: √ проверено
Размер: 1.41 GB
Как cкачать? Как скачать Британские СС через торрент | qTorrent

28-11-2019 20:33  

Отключить всю рекламу на сайте

03-03-2017 18:23 Британские СС Скачать торрент  

+2pb.wtf



08-03-2017 15:49 Британские СС Скачать торрент  

очень даже не чего, ждем продолженияpb.wtf



10-03-2017 10:58 Британские СС Скачать торрент  

3 эпизод вышел 05.03, а когда можно ждать перевод?
С уважением к Вашему труду

19.03.2017 05 Episode 5
12.03.2017 04 Episode 4
05.03.2017 03 Episode 3
26.02.2017 02 Episode 2
19.02.2017 01 Episode 1pb.wtf



    Дорогой пользователь! Огромная просьба, поблагодарите релизера, оцените раздачу и оставьте свои комментарий, если Вы скачали Британские СС через торрент бесплатно! Внесите свою лепту в развитие PiratBit!
    Комментировать посты могут только пользователи прошедшие не сложную регистрацию
    Показать сообщения:    

    Британские СС через торрент
    Скачать бесплатно Британские СС
    Британские СС скачать торрент
    Британские СС смотреть онлайн
    Cкачать фильм Британские СС бесплатно
    Британские СС скачать торрент в хорошем качестве
    Британские СС смотреть онлайн бесплатно в хорошем качестве


    Вы не можете начинать темы
    Вы не можете отвечать на сообщения
    Вы не можете редактировать свои сообщения
    Вы не можете удалять свои сообщения
    Вы не можете голосовать в опросах
    Вы не можете прикреплять файлы к сообщениям
    Вы можете скачивать файлы