Ссылка на приватное зеркало нашего сайта всего за 1$. Внимание количество ограничено!!!

2 сезон

iTunes

1 сезон

1

iTunes

iTunes

iTunes

1 сезон

RePack

30

ИГРА 18+

pack

ВАЖНО

!!Акция!!

Alien_RageХит недели

RePack

MK11
pack

Забери бонус

RePack

jed

!!Акция!!

Alien_Rage

RePack

fifa19

RePack

Assassins Creed: Odyssey

RePack

NEED FOR SPEED™ PAYBACK

4 сезон

9 сезон

Бесстыжие 9 сезон

Все сериалы

все сериалы на PB.wtf

RePack

FAR CRY 5
  

Скандинавский форсаж: Гонки на льду / Børning 2 (Халлвард Браэин) [2016, боевик, комедия, BDRip 1080p] Профессиональный многоголосый [Лицензия / iTunes] pb.wtf

Скандинавский форсаж: Гонки на льду через торрент pb.wtf

Размер: 9.85 GB | Добавлен: 3 года 8 мес. назад | Торрент скачан:176 раз
Скачать  

27-02-2017 17:44 Скандинавский форсаж: Гонки на льду Скачать торрент  

Скандинавский форсаж: Гонки на льду / Børning 2

Год выпуска: 2016
Страна: Норвегия
Жанр: боевик, комедия
Продолжительность: 01:37:10
Перевод: Профессиональный (Многоголосый) - [Лицензия / iTunes]
Субтитры: русские (full), английские (full)
Режиссер: Халлвард Браэин
В ролях:
Андерс Баасмо Кристиансен (Roy Gundersen), Дженни Скавлан (Sylvia), Свен Нордин (Doffen), Вегар Хуль (Kayser), Йонас Хофф Офтебро (Charley), Хенрик Местад (Philip Mørk), Стиг Фроде Хенриксен (Petter'n), Отто Есперсен (Nybakken), Lisa Uhlen Ryssevik (Thea), Ida Husøy (Nina), Миккель Гауп (Mikkel), Роберт Скйэрстад (Arne Roger)
Описание:
Король экстремальных уличных гонок Рой, отбыв срок заключения, решает завязать со своим опасным хобби. Однако судьба бросает ему очередной вызов - его давние соперники затевают грандиозное состязание, маршрут которого берет начало в Норвегии и через Швецию ведет в далекий Мурманск! А тут ещё его любимая дочь соглашается участвовать в гонке. Рой пускается во все тяжкие, чтобы предостеречь ее от столь рискованного предприятия...
Рейтинг:

Качество: BDRip 1080p
Формат: MKV
Видео: AVC, 1920x804 (2.40:1), 13500 kbps, 24 fps, 0,364 bpp
Аудио №1: русский / AC3 / 5.1 / 48 kHz / 384 kbps / |iTunes|
Аудио №2: норвежский / AC3 / 5.1 / 48 kHz / 640 kbps /
Навигация по главам: есть
General
Unique ID : 206129330413286826560816040989517670393 (0x9B1310A2EB3808D18B08E4FFF75BE7F9)
Complete name : D:\Skandinavskij.forsazh.2.2O16.P.BDRip.1O8Op.mkv
Format : Matroska
Format version : Version 2
File size : 9.85 GiB
Duration : 1 h 37 min
Overall bit rate : 14.5 Mb/s
Movie name : Borning 2 2016 1080p BluRay DD5.1 x264-playHD
Encoded date : UTC 2017-02-27 16:06:11
Writing application : mkvmerge v7.8.0 ('River Man') 32bit built on Apr 3 2015 12:11:22
Writing library : libebml v1.3.1 + libmatroska v1.4.2

Video
ID : 1
Format : AVC
Format/Info : Advanced Video Codec
Format profile : High@L4.1
Format settings, CABAC : Yes
Format settings, ReFrames : 5 frames
Codec ID : V_MPEG4/ISO/AVC
Duration : 1 h 37 min
Bit rate : 13.5 Mb/s
Width : 1 920 pixels
Height : 804 pixels
Display aspect ratio : 2.40:1
Frame rate mode : Constant
Frame rate : 24.000 FPS
Color space : YUV
Chroma subsampling : 4:2:0
Bit depth : 8 bits
Scan type : Progressive
Bits/(Pixel*Frame) : 0.364
Stream size : 8.96 GiB (91%)
Writing library : x264 core 146 r2538 121396c
Encoding settings : cabac=1 / ref=5 / deblock=1:-3:-3 / analyse=0x3:0x133 / me=umh / subme=10 / psy=1 / psy_rd=1.05:0.00 / mixed_ref=1 / me_range=32 / chroma_me=1 / trellis=2 / 8x8dct=1 / cqm=0 / deadzone=21,11 / fast_pskip=0 / chroma_qp_offset=-2 / threads=6 / lookahead_threads=1 / sliced_threads=0 / nr=0 / decimate=0 / interlaced=0 / bluray_compat=0 / constrained_intra=0 / bframes=8 / b_pyramid=2 / b_adapt=2 / b_bias=0 / direct=3 / weightb=1 / open_gop=0 / weightp=2 / keyint=250 / keyint_min=24 / scenecut=40 / intra_refresh=0 / rc=2pass / mbtree=0 / bitrate=13500 / ratetol=1.0 / qcomp=0.65 / qpmin=0 / qpmax=69 / qpstep=4 / cplxblur=20.0 / qblur=0.5 / ip_ratio=1.40 / pb_ratio=1.30 / aq=3:0.80
Language : Norwegian
Default : Yes
Forced : No

Audio #1
ID : 2
Format : AC-3
Format/Info : Audio Coding 3
Mode extension : CM (complete main)
Format settings, Endianness : Big
Codec ID : A_AC3
Duration : 1 h 37 min
Bit rate mode : Constant
Bit rate : 384 kb/s
Channel(s) : 6 channels
Channel positions : Front: L C R, Side: L R, LFE
Sampling rate : 48.0 kHz
Frame rate : 31.250 FPS (1536 spf)
Compression mode : Lossy
Stream size : 267 MiB (3%)
Title : iTunes
Language : Russian
Default : Yes
Forced : No

Audio #2
ID : 3
Format : AC-3
Format/Info : Audio Coding 3
Mode extension : CM (complete main)
Format settings, Endianness : Big
Codec ID : A_AC3
Duration : 1 h 37 min
Bit rate mode : Constant
Bit rate : 640 kb/s
Channel(s) : 6 channels
Channel positions : Front: L C R, Side: L R, LFE
Sampling rate : 48.0 kHz
Frame rate : 31.250 FPS (1536 spf)
Compression mode : Lossy
Stream size : 445 MiB (4%)
Language : Norwegian
Default : No
Forced : No

Text #1
ID : 4
Format : UTF-8
Codec ID : S_TEXT/UTF8
Codec ID/Info : UTF-8 Plain Text
Title : full
Language : Russian
Default : No
Forced : No

Text #2
ID : 5
Format : UTF-8
Codec ID : S_TEXT/UTF8
Codec ID/Info : UTF-8 Plain Text
Title : full
Language : English
Default : No
Forced : No

Menu
00:00:00.000 : :Chapter 1
00:11:53.125 : :Chapter 2
00:27:53.792 : :Chapter 3
00:39:08.333 : :Chapter 4
00:53:40.625 : :Chapter 5
01:07:09.292 : :Chapter 6
01:17:50.083 : :Chapter 7
01:33:06.708 : :Chapter 8
Скриншоты
pb.wtf



Скачать Скандинавский форсаж: Гонки на льду через торрент http://i5.imageban.ru/out/2017/02/27/0cead2c43c7d53af334090a7b93667e1.jpg Скачать фильм Скандинавский форсаж: Гонки на льду через торрент бесплантно в хорошем качестве Описание: Король экстремальных уличных гонок Рой, отбыв срок заключения, решает завязать со своим опасным хобби. Однако судьба бросает ему ... 10 10 3
Info! Золотая раздача, скачанное не засчитывается.
Торрент: Зарегистрирован [2017-02-27 17:44] · скачан: 176 раз
Статус: √ проверено
Размер: 9.85 GB
Как cкачать? Как скачать Скандинавский форсаж: Гонки на льду через торрент | qTorrent

% Раздел Тема Автор DL S | L
Фильмы (Blu-ray, BD-Remux, HDDVD) [ 16.21 GB ] Скандинавский форсаж: Гонки на льду / Børning 2 [2016 BD Remux] многоголосый -Lexx- Скачать
1 | 0
Фильмы 2016 [DVDrip, WEB-DLRip, HDrip] (DUB, MVO) [ 1.42 GB ] Скандинавский форсаж: Гонки на льду / Børning 2 [2016 BDRip] многоголосый Twi7ter Скачать
1 | 0
R.G. Resident & PiratVoice - Фильмы, Видео [ 2.91 GB ] Скандинавский форсаж: Гонки на льду / Børning 2 [2016 BDRip-AVC от R.G. Resident] MVO -Lexx- Скачать
1 | 0
Фильмы 2016 [DVDrip, WEB-DLRip, HDrip] (DUB, MVO) [ 1.37 GB ] Скандинавский форсаж: Гонки на льду / Børning 2 [2016 HDRip] [MVO] [] killermax2013 Скачать
1 | 0

28-11-2019 20:33  

Отключить всю рекламу на сайте

28-02-2017 08:29 Скандинавский форсаж: Гонки на льду Скачать торрент  

Фигня.въехали в Россию и играет украинская песня.одним словом бред.pb.wtf



    Дорогой пользователь! Огромная просьба, поблагодарите релизера, оцените раздачу и оставьте свои комментарий, если Вы скачали Скандинавский форсаж: Гонки на льду через торрент бесплатно! Внесите свою лепту в развитие PiratBit!
    Комментировать посты могут только пользователи прошедшие не сложную регистрацию
    Показать сообщения:    

    Скандинавский форсаж: Гонки на льду через торрент
    Скачать бесплатно Скандинавский форсаж: Гонки на льду
    Скандинавский форсаж: Гонки на льду скачать торрент
    Скандинавский форсаж: Гонки на льду смотреть онлайн
    Cкачать фильм Скандинавский форсаж: Гонки на льду бесплатно
    Скандинавский форсаж: Гонки на льду скачать торрент в хорошем качестве
    Скандинавский форсаж: Гонки на льду смотреть онлайн бесплатно в хорошем качестве


    Вы не можете начинать темы
    Вы не можете отвечать на сообщения
    Вы не можете редактировать свои сообщения
    Вы не можете удалять свои сообщения
    Вы не можете голосовать в опросах
    Вы не можете прикреплять файлы к сообщениям
    Вы можете скачивать файлы