Ссылка на приватное зеркало нашего сайта всего за 1$. Внимание количество ограничено!!!

2 сезон

iTunes

1 сезон

1

2 сезон

2 сезон

iTunes

1 сезон

RePack

30

Ultimate

ВАЖНО

ИГРА 18+

pack

RePack

MK11
pack

Забери бонус

RePack

jed

!!Акция!!

Alien_Rage

RePack

fifa19

RePack

Assassins Creed: Odyssey

RePack

NEED FOR SPEED™ PAYBACK

4 сезон

9 сезон

Бесстыжие 9 сезон

Все сериалы

все сериалы на PB.wtf

RePack

FAR CRY 5
  

Настоящие О’Нилы / The Real O'Neals / Сезон: 1 / Серии 1-13 из 13 (Тодд Холлэнд / Todd Holland, Ребекка Эшер / Rebecca Asher, Эял Гордин / Eyal Gordin) [2016 , США, комедия, WEBRip-AVC] MVO [BaibaKo] pb.wtf

Настоящие О’Нилы через торрент pb.wtf

Размер: 5.41 GB | Добавлен: 3 года 9 мес. назад | Торрент скачан:11 раз
Скачать  

28-02-2017 08:01 Настоящие О’Нилы Скачать торрент  

Настоящие О’Нилы / The Real O'Neals


  • Год выпуска: 2016
  • Страна: США
  • Жанр: комедия
  • Продолжительность: 00:21:31 (Серия)
  • Перевод: Профессиональный многоголосый [BaibaKo]
  • Режиссер: Тодд Холлэнд / Todd Holland, Ребекка Эшер / Rebecca Asher, Эял Гордин / Eyal Gordin
  • В ролях:

    Марта Плимптон (Eileen O'Neal), Джей Р. Фергюсон (Pat O'Neal), Ной Галвин (Kenny O'Neal), Мэтт Шайвли (Jimmy O'Neal), Бебе Вуд (Shannon O'Neal), Мэри Холлис Инбоден (Jodi), Мэтт Оберг (VP Murray), Шон Грандильо (Brett Young), Джессика-Сноу Уилсон (Gloria), Рамона Янг (Allison), Джереми Лосон (Jesus), Caleb Pierce (Stuart)


  • Жизнь образцового семейства кардинально меняется, когда их любимый сын признается, что он гей.
  • Рейтинг:



  • Качество: WEBRip-AVC
  • Формат: :MPEG-4
  • Видео кодек: AVC
  • Аудио кодек: AC3
  • Видео: 1024x576 (16:9), 2000 kbps, 23,976 fps, 0,141 bpp
  • Аудио №1: русский / 5.1 / 48 kHz / 384 kbps / 16 bit |[BaibaKo]|
  • Аудио №2: английский / 5.1 / 48 kHz / 384 kbps / 16 bit
  • Релиз от: GEKADOL

    General
    Complete name : K:\Настоящие О’Нилы (The Real O'Neals 1)\The.Real.O'Neals.s01e13.WEBRip-AVC.Rus.Eng.BaibaKo.tv.mp4
    Format : MPEG-4
    Format profile : Base Media
    Codec ID : isom (isom/iso2/avc1/mp41)
    File size : 428 MiB
    Duration : 21 min
    Overall bit rate : 2 777 kb/s
    Writing application : XviD4PSP 7.0.358 DAILY
    HDVideo : Yes
    encoding_info : MATROSKA / WEBM > MP4 Произвольный / H264 > X264 CBR 2000kbps HQ / AC3 > AC3 CBR 384kbps / AC3 > AC3 CBR 384kbps

    Video
    ID : 1
    Format : AVC
    Format/Info : Advanced Video Codec
    Format profile : High@L4.1
    Format settings, CABAC : Yes
    Format settings, ReFrames : 4 frames
    Codec ID : avc1
    Codec ID/Info : Advanced Video Coding
    Duration : 21 min
    Bit rate : 2 000 kb/s
    Width : 1 024 pixels
    Height : 576 pixels
    Display aspect ratio : 16:9
    Frame rate mode : Constant
    Frame rate : 23.976 (24000/1001) FPS
    Color space : YUV
    Chroma subsampling : 4:2:0
    Bit depth : 8 bits
    Scan type : Progressive
    Bits/(Pixel*Frame) : 0.141
    Stream size : 308 MiB (72%)
    Writing library : x264 core 148 r2762M 90a61ec
    Encoding settings : cabac=1 / ref=3 / deblock=1:-1:-1 / analyse=0x3:0x133 / me=hex / subme=7 / psy=1 / psy_rd=1.00:0.20 / mixed_ref=1 / me_range=16 / chroma_me=1 / trellis=1 / 8x8dct=1 / cqm=0 / deadzone=21,11 / fast_pskip=1 / chroma_qp_offset=-3 / threads=5 / lookahead_threads=1 / sliced_threads=0 / nr=0 / decimate=1 / interlaced=0 / bluray_compat=0 / constrained_intra=0 / bframes=3 / b_pyramid=2 / b_adapt=2 / b_bias=0 / direct=3 / weightb=1 / open_gop=0 / weightp=2 / keyint=230 / keyint_min=23 / scenecut=40 / intra_refresh=0 / rc_lookahead=40 / rc=cbr / mbtree=1 / bitrate=2000 / ratetol=1.0 / qcomp=0.60 / qpmin=0 / qpmax=69 / qpstep=4 / vbv_maxrate=2000 / vbv_bufsize=30000 / nal_hrd=none / filler=0 / ip_ratio=1.40 / aq=1:1.00

    Audio #1
    ID : 2
    Format : AC-3
    Format/Info : Audio Coding 3
    Mode extension : CM (complete main)
    Format settings, Endianness : Big
    Codec ID : ac-3
    Duration : 21 min
    Bit rate mode : Constant
    Bit rate : 384 kb/s
    Channel(s) : 6 channels
    Channel positions : Front: L C R, Side: L R, LFE
    Sampling rate : 48.0 kHz
    Frame rate : 31.250 FPS (1536 spf)
    Bit depth : 16 bits
    Compression mode : Lossy
    Stream size : 59.1 MiB (14%)
    Language : Russian
    Default : Yes
    Alternate group : 1

    Audio #2
    ID : 3
    Format : AC-3
    Format/Info : Audio Coding 3
    Mode extension : CM (complete main)
    Format settings, Endianness : Big
    Codec ID : ac-3
    Duration : 21 min
    Bit rate mode : Constant
    Bit rate : 384 kb/s
    Channel(s) : 6 channels
    Channel positions : Front: L C R, Side: L R, LFE
    Sampling rate : 48.0 kHz
    Frame rate : 31.250 FPS (1536 spf)
    Bit depth : 16 bits
    Compression mode : Lossy
    Stream size : 59.1 MiB (14%)
    Language : English
    Default : No
    Alternate group : 1

    Скриншоты:



    pb.wtf



  • Скачать Настоящие О’Нилы через торрент http://i91.fastpic.ru/big/2017/0228/aa/e81d77ae12ce00ef4ebd6d789294dbaa.jpg Скачать фильм Настоящие О’Нилы через торрент бесплантно в хорошем качестве qw.png Жизнь образцового семейства кардинально меняется, когда их любимый сын признается, что он ... 7 10 3
    Info! Золотая раздача, скачанное не засчитывается.
    Торрент: Зарегистрирован [2017-02-28 08:01] · скачан: 11 раз
    Статус: √ проверено
    Размер: 5.41 GB
    Как cкачать? Как скачать Настоящие О’Нилы через торрент | qTorrent

    28-11-2019 20:33  

    Отключить всю рекламу на сайте

      Дорогой пользователь! Огромная просьба, поблагодарите релизера, оцените раздачу и оставьте свои комментарий, если Вы скачали Настоящие О’Нилы через торрент бесплатно! Внесите свою лепту в развитие PiratBit!
      Комментировать посты могут только пользователи прошедшие не сложную регистрацию
      Показать сообщения:    

      Настоящие О’Нилы через торрент
      Скачать бесплатно Настоящие О’Нилы
      Настоящие О’Нилы скачать торрент
      Настоящие О’Нилы смотреть онлайн
      Cкачать фильм Настоящие О’Нилы бесплатно
      Настоящие О’Нилы скачать торрент в хорошем качестве
      Настоящие О’Нилы смотреть онлайн бесплатно в хорошем качестве


      Вы не можете начинать темы
      Вы не можете отвечать на сообщения
      Вы не можете редактировать свои сообщения
      Вы не можете удалять свои сообщения
      Вы не можете голосовать в опросах
      Вы не можете прикреплять файлы к сообщениям
      Вы можете скачивать файлы