Ссылка на приватное зеркало нашего сайта всего за 1$. Внимание количество ограничено!!!

2 сезон

iTunes

1 сезон

1

iTunes

iTunes

iTunes

1 сезон

RePack

30

ИГРА 18+

pack

ВАЖНО

!!Акция!!

Alien_RageХит недели

RePack

MK11
pack

Забери бонус

RePack

jed

!!Акция!!

Alien_Rage

RePack

fifa19

RePack

Assassins Creed: Odyssey

RePack

NEED FOR SPEED™ PAYBACK

4 сезон

9 сезон

Бесстыжие 9 сезон

Все сериалы

все сериалы на PB.wtf

RePack

FAR CRY 5
  

Диверсант / 4 серии из 4 (Андрей Малюков) [2004, боевик, военный, HDTVRip 720p] pb.wtf

Диверсант через торрент pb.wtf

Размер: 11.23 GB | Добавлен: 3 года 7 мес. назад | Торрент скачан:14 раз
Скачать  

28-02-2017 21:51 Диверсант Скачать торрент  

ДиверсантГод выпуска: 2004
Страна: Россия
Жанр: боевик, военный
Продолжительность: 4 х 00:51:00
Субтитры: отсутствуют

Режиссер: Андрей Малюков

rating

В ролях:

Алексей Бардуков,Владислав Галкин,Кирилл Плетнёв,Александр Лыков,Вилле Хаапасало,Владимир Меньшов,Михаил Ефремов,Андрей Краско,Ксения Кузнецова,Игорь Ливанов.

Описание:

Действие фильма происходит в 1942 году. Молодые ребята — выпускники разведшколы, разрабатывают и выполняют сверхсложные операции в тылу врага.

Качество: HDTVRip 720p
Формат: MKV
Видео кодек: H.264
Аудио кодек: AC3

Видео: 1280x720p (16:9), 25 fps, MPEG-4 AVC (x264), High@L4.1 ~7500 Kbps avg, 0.326 bit/pixel
Аудио#1: Русский 48 kHz, AC3, 6 ch ~ 448 Kbps
Общее
Уникальный идентификатор : 210530630254739488981994292770903476673 (0x9E62B978F3BA642E934D12561AA4C9C1)
Полное имя : F:\TREKER\ТЕМР\diversant_S01_\diversant_S01_E01.mkv
Формат : Matroska
Версия формата : Version 2
Размер файла : 2,85 Гбайт
Продолжительность : 51 м. 19 с.
Общий поток : 7942 Кбит/сек
Название фильма : diversant_S01_E01
Дата кодирования : UTC 2017-02-27 07:37:34
Программа кодирования : mkvmerge v4.0.0 ('The Stars were mine') сборка от Jun 6 2010 16:18:42
Библиотека кодирования : libebml v1.0.0 + libmatroska v1.0.0
Обложка : Yes
Attachments : cover.jpg

Видео
Идентификатор : 1
Формат : AVC
Формат/Информация : Advanced Video Codec
Профиль формата : High@L4.1
Параметр CABAC формата : Да
Параметр ReFrames формата : 6 кадров
Идентификатор кодека : V_MPEG4/ISO/AVC
Продолжительность : 51 м. 19 с.
Битрейт : 7500 Кбит/сек
Ширина : 1280 пикселей
Высота : 720 пикселей
Соотношение сторон : 16:9
Режим частоты кадров : Постоянный
Частота кадров : 25,000 кадров/сек
Цветовое пространство : YUV
Субдискретизация насыщенности : 4:2:0
Битовая глубина : 8 бит
Тип развёртки : Прогрессивная
Бит/(Пиксели*Кадры) : 0.326
Размер потока : 2,63 Гбайт (92%)
Заголовок : diversant_S01_E01
Библиотека кодирования : x264 core 146 r2538 121396c
Настройки программы : cabac=1 / ref=6 / deblock=1:-1:-1 / analyse=0x3:0x133 / me=umh / subme=10 / psy=1 / psy_rd=1.00:0.15 / mixed_ref=1 / me_range=24 / chroma_me=1 / trellis=2 / 8x8dct=1 / cqm=0 / deadzone=21,11 / fast_pskip=0 / chroma_qp_offset=-3 / threads=12 / lookahead_threads=1 / sliced_threads=0 / nr=0 / decimate=1 / interlaced=0 / bluray_compat=0 / constrained_intra=0 / bframes=3 / b_pyramid=2 / b_adapt=2 / b_bias=0 / direct=1 / weightb=1 / open_gop=0 / weightp=2 / keyint=250 / keyint_min=25 / scenecut=40 / intra_refresh=0 / rc_lookahead=50 / rc=abr / mbtree=1 / bitrate=7500 / ratetol=1.0 / qcomp=0.69 / qpmin=0 / qpmax=69 / qpstep=4 / ip_ratio=1.40 / aq=1:1.00
Язык : Russian
Default : Нет
Forced : Нет

Аудио
Идентификатор : 2
Формат : AC-3
Формат/Информация : Audio Coding 3
Расширение режима : CM (complete main)
Параметр Endianness формата : Big
Идентификатор кодека : A_AC3
Продолжительность : 51 м. 19 с.
Вид битрейта : Постоянный
Битрейт : 448 Кбит/сек
Каналы : 6 каналов
Расположение каналов : Front: L C R, Side: L R, LFE
Частота : 48,0 КГц
Частота кадров : 31,250 кадров/сек (1536 spf)
Битовая глубина : 16 бит
Метод сжатия : С потерями
Размер потока : 164 Мбайт (6%)
Заголовок : Оригинал
Язык : Russian
Default : Нет
Forced : Нет

Меню
00:00:00.000 : en:
00:12:00.000 : en:
00:24:00.000 : en:
00:36:00.000 : en:
00:48:00.000 : en:
скриншот   скриншот   скриншот   скриншот  
pb.wtf



Скачать Диверсант через торрент http://s018.radikal.ru/i509/1702/e3/a2b16ec2f28e.jpg Скачать фильм Диверсант через торрент бесплантно в хорошем качестве Описание: Действие фильма происходит в 1942 году. Молодые ребята — выпускники разведшколы, разрабатывают и выполняют сверхсложные операции ... 10 10 7
Info! Золотая раздача, скачанное не засчитывается.
Торрент: Зарегистрирован [2017-02-28 21:51] · скачан: 14 раз
Статус: √ проверено
Размер: 11.23 GB
Как cкачать? Как скачать Диверсант через торрент | qTorrent

% Раздел Тема Автор DL S | L
Наши сериалы [ 1.74 GB ] Диверсант. Крым / Сезон: 3 / Серии: 1-4 из 4 [2020 военный HDTVRip-AVC] sokol_ok Скачать
32 | 1
Наши сериалы [ 2.72 GB ] Диверсант. Крым / Сезон: 3 / Серии: 1-4 из 4 [2020 Военный SATRip] bober100 Скачать
2 | 0
Наши сериалы [ 3.39 GB ] Диверсант. Крым / Сезон: 3 / Серии: 1-4 из 4 [2020 военный HDTVRip-AVC] sokol_ok Скачать
18 | 1
Наши сериалы [ 5.28 GB ] Диверсант. Крым / Сезон: 3 / Серии: 1-4 из 4 [2020 Военный HDTVRip 720p] bober100 Скачать
6 | 0
Наши сериалы [ 3.85 GB ] Диверсант. Крым / Серии: 1-4 из 4 [2020военный HDTVRip-AVC] aleksan55 Скачать
1 | 0
Наши сериалы [ 3.14 GB ] Диверсант. Крым / Сезон: 3 / Серии: 1-4 из 4 [2020 Военный HDTVRip-AVC] bober100 Скачать
2 | 0
Наши сериалы [ 11.4 GB ] Диверсант. Крым / Сезон: 3 / Серии: 1-4 из 4 [2020 Военный HDTV 1080i] bober100 Скачать
2 | 1

28-11-2019 20:33  

Отключить всю рекламу на сайте

    Дорогой пользователь! Огромная просьба, поблагодарите релизера, оцените раздачу и оставьте свои комментарий, если Вы скачали Диверсант через торрент бесплатно! Внесите свою лепту в развитие PiratBit!
    Комментировать посты могут только пользователи прошедшие не сложную регистрацию
    Показать сообщения:    

    Диверсант через торрент
    Скачать бесплатно Диверсант
    Диверсант скачать торрент
    Диверсант смотреть онлайн
    Cкачать фильм Диверсант бесплатно
    Диверсант скачать торрент в хорошем качестве
    Диверсант смотреть онлайн бесплатно в хорошем качестве


    Вы не можете начинать темы
    Вы не можете отвечать на сообщения
    Вы не можете редактировать свои сообщения
    Вы не можете удалять свои сообщения
    Вы не можете голосовать в опросах
    Вы не можете прикреплять файлы к сообщениям
    Вы можете скачивать файлы