Ссылка на приватное зеркало нашего сайта всего за 1$. Внимание количество ограничено!!!

2 сезон

iTunes

1 сезон

1

iTunes

iTunes

iTunes

1 сезон

RePack

30

ИГРА 18+

pack

ВАЖНО

!!Акция!!

Alien_RageХит недели

RePack

MK11
pack

Забери бонус

RePack

jed

!!Акция!!

Alien_Rage

RePack

fifa19

RePack

Assassins Creed: Odyssey

RePack

NEED FOR SPEED™ PAYBACK

4 сезон

9 сезон

Бесстыжие 9 сезон

Все сериалы

все сериалы на PB.wtf

RePack

FAR CRY 5
  

Экскалибур / Excalibur (Джон Бурмен) [1981, фэнтези, драма, приключения, BDRip 1080p by msltel] DUB, MVO pb.wtf

Экскалибур через торрент pb.wtf

Размер: 18.13 GB | Добавлен: 3 года 7 мес. назад | Торрент скачан:20 раз
Скачать  

01-03-2017 05:53 Экскалибур Скачать торрент  

Название: Экскалибур
Оригинальное название: Excalibur
Год выпуска: 1981
Страна: США, Великобритания
Жанр: фэнтези, драма, приключения
Продолжительность: 02:20:47
Перевод: дублированный, профессиональный многоголосый

Режиссёр: Джон Бурмен

В ролях: Найджел Терри, Хелен Миррен, Николас Клэй, Лиам Нисон, Шери Лунги, Пол Джефри, Никол Уильямсон, Роберт Эдди, Кит Бакли, Кэтрин Бурмен, Корин Редгрэйв, Гэбриел Бирн

Описание: Экскалибур — это меч легендарного короля Артура, воспетого трубадурами и менестрелями, правившего Англией в те славные времена, когда достойные рыцари восседали на своих местах за круглым столом, поднимая чаши за здравие Его Величества и окончательную победу над злом. В те времена люди больше полагались на предсказания магов и наговоры колдунов, меньше веря в силу разума и своего опыта. Однако именно тогда заклинания и пророчества уступили своё место тому, что мы называем здравым смыслом… Фильм снят по мотивам романа Томаса Мэлори «Смерть Артура» (Le Morte D`arthur).



Качество: BDRip 1080p
Формат: MKV
Видео: MPEG-4 AVC, 17.2 Mбит/с, 1920x1080, 23,976 кадра/с
Аудио 1: русский, AC3, 256 kbps, 1 ch, 48 kHz [дублированный, Юниверсал Пикчерс]
Аудио 2: русский, AC3, 224 kbps, 2 ch, 48 kHz [профессиональный многоголосый, Варус видео]
Аудио 3: английский, DTS, 768 kbps, 6 ch, 48 kHz [оригинал]
Субтитры 1: русские
Субтитры 2: английские
Имеются неименованные главы/чаптеры.
Общее
Уникальный идентификатор : 185216952844317271420532462813466453764 (0x8B577CD154279A2186A8707C1D35E704)
Полное имя : D:\Video\Экскалибур.1981.BDRip.1080p by msltel.mkv
Формат : Matroska
Версия формата : Version 4 / Version 2
Размер файла : 18,1 Гбайт
Продолжительность : 2 ч. 20 м.
Общий поток : 18,4 Мбит/сек
Название фильма : Rip by msltel
Дата кодирования : UTC 2017-02-28 11:35:31
Программа кодирования : mkvmerge v8.2.0 ('World of Adventure') 64bit
Библиотека кодирования : libebml v1.3.1 + libmatroska v1.4.2

Видео
Идентификатор : 1
Формат : AVC
Формат/Информация : Advanced Video Codec
Профиль формата : High@L4.1
Параметр CABAC формата : Да
Параметр ReFrames формата : 4 кадра
Идентификатор кодека : V_MPEG4/ISO/AVC
Продолжительность : 2 ч. 20 м.
Битрейт : 17,2 Мбит/сек
Ширина : 1920 пикселей
Высота : 1080 пикселей
Соотношение сторон : 16:9
Режим частоты кадров : Постоянный
Частота кадров : 23,976 (24000/1001) кадра/сек
Цветовое пространство : YUV
Субдискретизация насыщенности : 4:2:0
Битовая глубина : 8 бит
Тип развёртки : Прогрессивная
Бит/(Пиксели*Кадры) : 0.346
Размер потока : 16,9 Гбайт (93%)
Библиотека кодирования : x264 core 146 r2538 121396c
Настройки программы : cabac=1 / ref=4 / deblock=1:-3:-2 / analyse=0x3:0x113 / me=umh / subme=11 / psy=1 / psy_rd=1.00:0.15 / mixed_ref=1 / me_range=32 / chroma_me=1 / trellis=2 / 8x8dct=1 / cqm=0 / deadzone=21,11 / fast_pskip=0 / chroma_qp_offset=-3 / threads=6 / lookahead_threads=1 / sliced_threads=0 / nr=0 / decimate=1 / interlaced=0 / bluray_compat=0 / constrained_intra=0 / bframes=8 / b_pyramid=2 / b_adapt=2 / b_bias=0 / direct=1 / weightb=1 / open_gop=0 / weightp=2 / keyint=230 / keyint_min=23 / scenecut=40 / intra_refresh=0 / rc_lookahead=40 / rc=crf / mbtree=0 / crf=19.1 / qcomp=0.60 / qpmin=0 / qpmax=69 / qpstep=4 / vbv_maxrate=62500 / vbv_bufsize=78125 / crf_max=0.0 / nal_hrd=none / filler=0 / ip_ratio=1.40 / pb_ratio=1.30 / aq=1:1.00
Язык : English
Default : Да
Forced : Нет

Аудио #1
Идентификатор : 2
Формат : AC-3
Формат/Информация : Audio Coding 3
Расширение режима : CM (complete main)
Параметр Endianness формата : Big
Идентификатор кодека : A_AC3
Продолжительность : 2 ч. 20 м.
Вид битрейта : Постоянный
Битрейт : 256 Кбит/сек
Каналы : 1 канал
Расположение каналов : Front: C
Частота : 48,0 КГц
Частота кадров : 31,250 кадров/сек (1536 spf)
Битовая глубина : 16 бит
Метод сжатия : С потерями
Размер потока : 258 Мбайт (1%)
Заголовок : DUB (Юниверсал Пикчерс)
Язык : Russian
Default : Да
Forced : Нет

Аудио #2
Идентификатор : 3
Формат : AC-3
Формат/Информация : Audio Coding 3
Профиль формата : Dolby Digital
Расширение режима : CM (complete main)
Параметр Endianness формата : Big
Идентификатор кодека : A_AC3
Продолжительность : 2 ч. 20 м.
Вид битрейта : Постоянный
Битрейт : 224 Кбит/сек
Каналы : 2 канала
Расположение каналов : Front: L R
Частота : 48,0 КГц
Частота кадров : 31,250 кадров/сек (1536 spf)
Битовая глубина : 16 бит
Метод сжатия : С потерями
Размер потока : 225 Мбайт (1%)
Заголовок : MVO (Варус видео)
Язык : Russian
Default : Нет
Forced : Нет

Аудио #3
Идентификатор : 4
Формат : DTS
Формат/Информация : Digital Theater Systems
Режим : 16
Параметр Endianness формата : Big
Идентификатор кодека : A_DTS
Продолжительность : 2 ч. 20 м.
Вид битрейта : Постоянный
Битрейт : 768 Кбит/сек
Каналы : 6 каналов
Расположение каналов : Front: L C R, Side: L R, LFE
Частота : 48,0 КГц
Частота кадров : 93,750 кадра/сек (512 spf)
Битовая глубина : 24 бит
Метод сжатия : С потерями
Размер потока : 773 Мбайт (4%)
Заголовок : original
Язык : English
Default : Нет
Forced : Нет

Текст #1
Идентификатор : 5
Формат : UTF-8
Идентификатор кодека : S_TEXT/UTF8
Идентификатор кодека/Информация : UTF-8 Plain Text
Продолжительность : 2 ч. 16 м.
Битрейт : 48 бит/сек
Count of elements : 1156
Размер потока : 48,4 Кбайт (0%)
Заголовок : русские
Язык : Russian
Default : Нет
Forced : Нет

Текст #2
Идентификатор : 6
Формат : UTF-8
Идентификатор кодека : S_TEXT/UTF8
Идентификатор кодека/Информация : UTF-8 Plain Text
Продолжительность : 2 ч. 14 м.
Битрейт : 31 бит/сек
Count of elements : 1149
Размер потока : 30,5 Кбайт (0%)
Заголовок : английские
Язык : English
Default : Нет
Forced : Нет

Меню
00:00:00.000 : :Chapter 01
00:00:10.010 : :Chapter 02
00:00:20.020 : :Chapter 03
00:00:30.029 : :Chapter 04
00:00:40.039 : :Chapter 05
00:00:50.050 : :Chapter 06
00:01:00.060 : :Chapter 07
00:01:10.069 : :Chapter 08
00:01:20.079 : :Chapter 09
00:01:30.090 : :Chapter 10
00:01:40.100 : :Chapter 11
00:01:50.109 : :Chapter 12
00:02:00.119 : :Chapter 13
00:02:10.130 : :Chapter 14
00:02:20.140 : :Chapter 15
00:02:30.149 : :Chapter 16
00:02:40.159 : :Chapter 17
00:02:50.170 : :Chapter 18
00:03:00.180 : :Chapter 19
00:03:10.189 : :Chapter 20
00:03:20.199 : :Chapter 21
00:03:30.210 : :Chapter 22
00:03:40.220 : :Chapter 23
00:03:50.229 : :Chapter 24
00:04:00.239 : :Chapter 25
00:04:10.250 : :Chapter 26
00:04:20.260 : :Chapter 27
00:04:30.270 : :Chapter 28
00:04:40.279 : :Chapter 29
00:04:50.289 : :Chapter 30
00:05:00.300 : :Chapter 31
00:05:10.310 : :Chapter 32
00:05:20.319 : :Chapter 33
00:05:30.329 : :Chapter 34
00:05:40.089 : :Chapter 35
pb.wtf



Скачать Экскалибур через торрент http://s42.radikal.ru/i096/1702/ed/1961966569c6.jpg Скачать фильм Экскалибур через торрент бесплантно в хорошем качестве Описание: Экскалибур — это меч легендарного короля Артура, воспетого трубадурами и менестрелями, правившего Англией в те славные времена, ... 10 10 2
Info! Золотая раздача, скачанное не засчитывается.
Торрент: Зарегистрирован [2017-03-01 05:53] · скачан: 20 раз
Статус: √ проверено
Размер: 18.13 GB
Как cкачать? Как скачать Экскалибур через торрент | qTorrent

% Раздел Тема Автор DL S | L
Фильмы [HD 720p, 1080p] (Хороший звук DUB, MVO) [ 7.34 GB ] Экскалибур / Excalibur [1981 BDRip 720p by msltel] DUB MVO msltel Скачать
1 | 0

28-11-2019 20:33  

Отключить всю рекламу на сайте

    Дорогой пользователь! Огромная просьба, поблагодарите релизера, оцените раздачу и оставьте свои комментарий, если Вы скачали Экскалибур через торрент бесплатно! Внесите свою лепту в развитие PiratBit!
    Комментировать посты могут только пользователи прошедшие не сложную регистрацию
    Показать сообщения:    

    Экскалибур через торрент
    Скачать бесплатно Экскалибур
    Экскалибур скачать торрент
    Экскалибур смотреть онлайн
    Cкачать фильм Экскалибур бесплатно
    Экскалибур скачать торрент в хорошем качестве
    Экскалибур смотреть онлайн бесплатно в хорошем качестве


    Вы не можете начинать темы
    Вы не можете отвечать на сообщения
    Вы не можете редактировать свои сообщения
    Вы не можете удалять свои сообщения
    Вы не можете голосовать в опросах
    Вы не можете прикреплять файлы к сообщениям
    Вы можете скачивать файлы