новый адрес пиратбит piratbit
Мега распродажа FORZA HORIZON 4 ULTIMATE+ВСЕ DLC+ОНЛАЙН всего за 499р. 349 руб. (супер цена). Внимание количество ограничено!!!

iTunes

1+1

iTunes

мы

iTunes

1

iTunes

Чернобыль

iTunes

Ральф против интернета

Лицензия

ПШазам

Лицензия

Игра престолов

Лицензия

30
pack

ВАЖНО

!!Акция!!

Alien_RageХит недели

RePack

Resident Evil 21

ИГРА 18+

pack

RePack

Metro:Exodus

!!Акция!!

Alien_Rage

RePack

fifa19

RePack

Assassins Creed: Odyssey

RePack

NEED FOR SPEED™ PAYBACK

3 сезон

9 сезон

Бесстыжие 9 сезон

Все сериалы

все сериалы на PB.wtf

RePack

FAR CRY 5
Ребята, катастрофически не хватает 1900р. для оплаты серверов за Октябрь (всвязи с блокировками трафик упал в 3 раза), 1-2р., выручайте.
  

Признание комиссара полиции прокурору республики / Confessione di un commissario di polizia al procuratore della repubblica (Дамиано Дамиани) [1971 г., Драма, криминал, DVDRip-AVC, Дубляж] от ExKinoRay pb.wtf

Признание комиссара полиции прокурору республики через торрент pb.wtf

Размер: 1.9 GB | Добавлен: 2 года 8 мес. назад | Торрент скачан:21 раз
Скачать  

02-03-2017 17:25 Признание комиссара полиции прокурору республики Скачать торрент  

Признание комиссара полиции прокурору республики / Confessione di un commissario di polizia al procuratore della repubblica
Год выпуска: 1971
Страна: Италия
Жанр: Драма, криминал
Продолжительность: 01:41:01
Перевод: Дубляж

Режиссер: Дамиано Дамиани

rating

В ролях: Франко Неро, Мартин Болсам, Марилу Толо, Клаудио Гора, Лучано Катеначчи, Джанкарло Прете, Артуро Доминичи, Микеле Гаммино, Адольфо Ластретти, Нелло Паццафини

Описание: Комиссар полиции Бонавиа вместе с прокурором республики пытаются доказать, что их городом управляет мафия во главе с торговцем недвижимостью Ломмуно.

Доп. информация: Перевод: Дублированный (Мосфильм) со вставками многоголосого на недостающие в советском прокате сцены

Качество: DVDRip-AVC
Формат: MKV
Видео кодек: MPEG4
Аудио кодек: AC3
Видео: MPEG-4 AVC, 2500 Кбит/с, 718x428@1021x428, 25 fps
Аудио#1: AC3, 2 ch, 192 Кбит/с, 48,0 КГц

Релиз от:




raw [info]: 718x428p 64:45 @ 25/1 fps (cfr)
x264 [info]: using SAR=64/45
x264 [info]: using cpu capabilities: MMX2 SSE2Fast LZCNT
x264 [info]: profile High, level 4.1
x264 [info]: frame I:908 Avg QP:15.29 size: 53065
x264 [info]: frame P:31922 Avg QP:17.86 size: 25402
x264 [info]: frame B:118710 Avg QP:19.65 size: 8719
x264 [info]: consecutive B-frames: 1.5% 3.0% 7.7% 18.6% 13.0% 43.6% 6.5% 3.2% 2.0% 0.3% 0.3% 0.3% 0.0% 0.0% 0.0% 0.0% 0.0%
-----
Общее
Уникальный идентификатор : 243546200315420989963123758278203785928 (0xB7394AC0B41050FF8F87500EEBA5C2C8)
Полное имя : E:\Priznanie.Komissara.1971.DVDRip-AVC.ExKinoRay.mkv
Формат : Matroska
Версия формата : Version 2
Размер файла : 1,90 Гбайт
Продолжительность : 1 ч. 41 м.
Общий поток : 2694 Кбит/сек
Дата кодирования : UTC 2017-03-02 13:47:54
Программа кодирования : mkvmerge v7.8.0 ('River Man') 32bit built on Apr 3 2015 12:11:22
Библиотека кодирования : libebml v1.3.1 + libmatroska v1.4.2

Видео
Идентификатор : 1
Формат : AVC
Формат/Информация : Advanced Video Codec
Профиль формата : High@L4.1
Параметр CABAC формата : Да
Параметр ReFrames формата : 14 кадров
Идентификатор кодека : V_MPEG4/ISO/AVC
Продолжительность : 1 ч. 41 м.
Битрейт : 2500 Кбит/сек
Ширина : 718 пикселей
Высота : 428 пикселей
Соотношение сторон : 2,40:1
Режим частоты кадров : Постоянный
Частота кадров : 25,000 кадров/сек
Цветовое пространство : YUV
Субдискретизация насыщенности : 4:2:0
Битовая глубина : 8 бит
Тип развёртки : Прогрессивная
Бит/(Пиксели*Кадры) : 0.325
Размер потока : 1,73 Гбайт (91%)
Библиотека кодирования : x264 core 148 r2638 7599210
Настройки программы : cabac=1 / ref=14 / deblock=1:-2:-2 / analyse=0x3:0x133 / me=umh / subme=10 / psy=1 / psy_rd=1.05:0.15 / mixed_ref=1 / me_range=32 / chroma_me=1 / trellis=2 / 8x8dct=1 / cqm=0 / deadzone=21,11 / fast_pskip=0 / chroma_qp_offset=-3 / threads=4 / lookahead_threads=1 / sliced_threads=0 / nr=0 / decimate=0 / interlaced=0 / bluray_compat=0 / constrained_intra=0 / bframes=16 / b_pyramid=2 / b_adapt=2 / b_bias=0 / direct=3 / weightb=1 / open_gop=0 / weightp=2 / keyint=250 / keyint_min=25 / scenecut=40 / intra_refresh=0 / rc=2pass / mbtree=0 / bitrate=2500 / ratetol=1.0 / qcomp=0.60 / qpmin=0 / qpmax=69 / qpstep=4 / cplxblur=20.0 / qblur=0.5 / ip_ratio=1.40 / pb_ratio=1.30 / aq=1:1.00
Язык : English
Default : Да
Forced : Нет
Цветовой диапазон : Limited
Основные цвета : BT.601 NTSC
Характеристики трансфера : BT.601
Коэффициенты матрицы : BT.601

Аудио
Идентификатор : 2
Формат : AC-3
Формат/Информация : Audio Coding 3
Расширение режима : CM (complete main)
Параметр Endianness формата : Big
Идентификатор кодека : A_AC3
Продолжительность : 1 ч. 41 м.
Вид битрейта : Постоянный
Битрейт : 192 Кбит/сек
Каналы : 2 канала
Расположение каналов : Front: L R
Частота : 48,0 КГц
Частота кадров : 31,250 кадров/сек (1536 spf)
Метод сжатия : С потерями
Размер потока : 139 Мбайт (7%)
Default : Да
Forced : Нет

pb.wtf



Скачать Признание комиссара полиции прокурору республики через торрент http://s019.radikal.ru/i623/1703/c7/a19626210533.jpg Скачать фильм Признание комиссара полиции прокурору республики через торрент бесплантно в хорошем качестве Описание: Комиссар полиции Бонавиа вместе с прокурором республики пытаются доказать, что их городом управляет мафия во главе с торговцем ... 7 10 3
Info! Золотая раздача, скачанное не засчитывается.
Торрент: Зарегистрирован [2017-03-02 17:25] · скачан: 21 раз
Статус: √ проверено
Размер: 1.9 GB
Как cкачать? Как скачать Признание комиссара полиции прокурору республики через торрент | qTorrent


>> Регистрируемся здесь <<






Отзывы и комментарии о схеме читаем и пишем здесь: ---> Отзывы и комментарии о схеме

Новые благодарочки в телеграм довольных пользователей:
скриншот   скриншот   скриншот   скриншот   скриншот

02-03-2017 17:58 Признание комиссара полиции прокурору республики Скачать торрент  

dumbia, Вы партнер трекера, и, поверьте, мы очень благодарны за качественные рипы, которые вы к нам заливаете.
Одно их условий партнерства - оформление раздач с соблюдением всех правил. Подробнее по этой ссылке: Вниманию релизеров!
Согласно Правил оформления раздач в разделе «Фильмов», на нашем трекере в технических данных о файле требуется указывать определенные параметры, в том числе частоту кадров в секунду (fps) для видео и частоту дискретизации (KHz) для аудио.
Оформление данной раздачи я поправил, но у меня к Вам просьба. Вы опытный релизер. Уважайте, пожалуйста, Правила нашего трекера. Указывайте технические данные самостоятельно, в соответствии с Правилами. Это не сложно.pb.wtf



    Дорогой пользователь! Огромная просьба, поблагодарите релизера, оцените раздачу и оставьте свои комментарий, если Вы скачали Признание комиссара полиции прокурору республики через торрент бесплатно! Внесите свою лепту в развитие PiratBit!
    Комментировать посты могут только пользователи прошедшие не сложную регистрацию
    Показать сообщения:    

    Признание комиссара полиции прокурору республики через торрент
    Скачать бесплатно Признание комиссара полиции прокурору республики
    Признание комиссара полиции прокурору республики скачать торрент
    Признание комиссара полиции прокурору республики смотреть онлайн
    Cкачать фильм Признание комиссара полиции прокурору республики бесплатно
    Признание комиссара полиции прокурору республики скачать торрент в хорошем качестве
    Признание комиссара полиции прокурору республики смотреть онлайн бесплатно в хорошем качестве


    Вы не можете начинать темы
    Вы не можете отвечать на сообщения
    Вы не можете редактировать свои сообщения
    Вы не можете удалять свои сообщения
    Вы не можете голосовать в опросах
    Вы не можете прикреплять файлы к сообщениям
    Вы можете скачивать файлы