2 сезон

iTunes

MVO

1

2 сезон

iTunes

iTunes

1 сезон

RePack

30

Новинка

ВАЖНО

ИГРА 18+

pack

RePack

MK11
pack

Легкие деньги

RePack

jed

RePack

fifa19

RePack

RDR2

RePack

NEED FOR SPEED™ PAYBACK

4 сезон

9 сезон

Бесстыжие 9 сезон

Все сериалы

все сериалы на PB.wtf

RePack

FAR CRY 5

Anonymous, добрый день, мы не успеваем собрать деньги на оплату серверов за декабрь и январь, помогите нам пожалуйста в это трудное время. В качестве благодарности мы отключим Вам всю рекламу на сайте (укажите свой ник в строку Ваше имя)!

×
  
Magnet ссылка

Любить нельзя забыть (Вячеслав Лавров ) [2012, мелодрама, WEB-DLRip 1080p] Не требуется [Русский] pb.wtf

Любить нельзя забыть через торрент pb.wtf

Размер: 1.61 GB | Добавлен: 3 года 10 мес. назад | Торрент скачан:20 раз
Скачать  

02-03-2017 17:38 Любить нельзя забыть Скачать торрент  

Любить нельзя забыть

Год выпуска: 2012
Страна: Россия
Жанр: мелодрама
Продолжительность: 01:27:37
Перевод: Не требуется [Русский]
Режиссер: Вячеслав Лавров
В ролях: Наталия Антонова, Дмитрий Бедерин, Полина Тарасова, Светлана Галка, Елена Стародуб, Руслан Джайбеков, Павел Шингарев, Анжелика Волчкова, Ева Авеева, Людмила Гаврилова, Александр Курицын, Олег Леушин
Описание:
В тридцать семь лет Марина ведет самую обычную жизнь современной разведенной женщины: одна воспитывает двенадцатилетнюю дочь Ксюшу, и работает учителем в художественной школе. Марине кажется, что ее жизнь уже прожита, и в ней не случится ничего нового. Но все меняется, когда Марина случайно знакомится с Никитой. Молодой человек влюбляется в нее с первого взгляда и готов на все, чтобы быть с любимой. Марина тоже испытывает чувства к Никите, но беда в том, что ему всего двадцать лет.

Качество: WEB-DLRip 1080p
Формат: MKV
Видео: AVC, 1920x1080 (16:9), 2444 kbps, 25 fps, 0,047 bpp
Аудио: AC3 / 2.0 / 44 kHz / 192 kbps /

General
Unique ID Любить нельзя забыть (2012).mkv
Format : Matroska
Format version : Version 4 / Version 2
File size : 1.61 GiB
Duration : 1 h 27 min
Overall bit rate : 2 638 kb/s
Encoded date : UTC 2017-03-01 14:35:27
Writing application : mkvmerge v9.9.0 ('Pick Up') 64bit
Writing library : libebml v1.3.4 + libmatroska v1.4.5 / Lavf57.25.100

Video
ID : 1
Format : AVC
Format/Info : Advanced Video Codec
Format profile : High@L4
Format settings, CABAC : Yes
Format settings, ReFrames : 3 frames
Codec ID : V_MPEG4/ISO/AVC
Duration : 1 h 27 min
Bit rate : 2 444 kb/s
Width : 1 920 pixels
Height : 1 080 pixels
Display aspect ratio : 16:9
Frame rate mode : Constant
Frame rate : 25.000 FPS
Color space : YUV
Chroma subsampling : 4:2:0
Bit depth : 8 bits
Scan type : Progressive
Bits/(Pixel*Frame) : 0.047
Stream size : 1.50 GiB (93%)
Default : Yes
Forced : No

Audio
ID : 2
Format : AC-3
Format/Info : Audio Coding 3
Mode extension : CM (complete main)
Format settings, Endianness : Big
Codec ID : A_AC3
Duration : 1 h 27 min
Bit rate mode : Constant
Bit rate : 192 kb/s
Channel(s) : 2 channels
Channel positions : Front: L R
Sampling rate : 44.1 kHz
Frame rate : 28.711 FPS (1536 spf)
Compression mode : Lossy
Delay relative to video : -40 ms
Stream size : 120 MiB (7%)
Default : Yes
Forced : No
pb.wtf



Скачать Любить нельзя забыть через торрент http://i1.imageban.ru/out/2017/03/02/ecd4640bda1788eba1ad35a02e310b0d.jpg Скачать фильм Любить нельзя забыть через торрент бесплантно в хорошем качестве Описание: В тридцать семь лет Марина ведет самую обычную жизнь современной разведенной женщины: одна воспитывает двенадцатилетнюю дочь ... 7 10 3
Торрент: Зарегистрирован [2017-03-02 17:38] · скачан: 20 раз
Статус: √ проверено
Размер: 1.61 GB
Как cкачать? Как скачать Любить нельзя забыть через торрент | UTorrent

% Раздел Тема Автор DL S | L
Наши фильмы 2012 [ 744 MB ] Любить нельзя забыть [2012 Россия WEB-DLRip] dexter lex Скачать
1 | 0
Наши фильмы 2012 [ 1.37 GB ] Любить нельзя забыть [2012 Россия SATRip] -=Cherry=- Скачать
1 | 0

28-11-2019 20:33  

Отключить всю рекламу на сайте

02-03-2017 20:40 Любить нельзя забыть Скачать торрент  

и как?pb.wtf



    Дорогой пользователь! Огромная просьба, поблагодарите релизера, оцените раздачу и оставьте свои комментарий, если Вы скачали Любить нельзя забыть через торрент бесплатно! Внесите свою лепту в развитие PiratBit!
    Комментировать посты могут только пользователи прошедшие не сложную регистрацию
    Показать сообщения:    

    Любить нельзя забыть через торрент
    Скачать бесплатно Любить нельзя забыть
    Любить нельзя забыть скачать торрент
    Любить нельзя забыть смотреть онлайн
    Cкачать фильм Любить нельзя забыть бесплатно
    Любить нельзя забыть скачать торрент в хорошем качестве
    Любить нельзя забыть смотреть онлайн бесплатно в хорошем качестве


    Вы не можете начинать темы
    Вы не можете отвечать на сообщения
    Вы не можете редактировать свои сообщения
    Вы не можете удалять свои сообщения
    Вы не можете голосовать в опросах
    Вы не можете прикреплять файлы к сообщениям
    Вы можете скачивать файлы