Ссылка на приватное зеркало нашего сайта всего за 1$. Внимание количество ограничено!!!

2 сезон

iTunes

1 сезон

1

iTunes

iTunes

iTunes

1 сезон

RePack

30

ИГРА 18+

pack

ВАЖНО

!!Акция!!

Alien_RageХит недели

RePack

MK11
pack

Забери бонус

RePack

jed

!!Акция!!

Alien_Rage

RePack

fifa19

RePack

Assassins Creed: Odyssey

RePack

NEED FOR SPEED™ PAYBACK

4 сезон

9 сезон

Бесстыжие 9 сезон

Все сериалы

все сериалы на PB.wtf

RePack

FAR CRY 5
  

Мина / Mine (Фабио Гуальоне, Фабио Резинаро) [2016, триллер, BDRip (720p)] [MVO] (AlexFilm) pb.wtf

Мина через торрент pb.wtf

Размер: 4.36 GB | Добавлен: 3 года 7 мес. назад | Торрент скачан:245 раз
Скачать  

02-03-2017 22:41 Мина Скачать торрент  

Мина / Mine
Год выхода: 2016
Жанр: триллер
Страна: США, Италия, Испания
Продолжительность: 01:46:30
Озвучание: Профессиональное (многоголосое, закадровое) (AlexFilm)

Режиссер: Фабио Гуальоне, Фабио Резинаро

В ролях: Арми Хаммер, Том Каллен, Аннабелль Уоллис, Джульетт Обри, Джофф Белл, Клинг Дайер

О фильме: Американский солдат после проваленной миссии оказывается в одиночестве посреди афганской пустыни. Одной ногой стоя на мине, он не может двинуться с места, но продолжает бороться за жизнь против суровой природы, блуждающих врагов, собственного отчаяния и страха.


Релиз-
Перевод: Дияна Младенович
Монтаж и сведение звука: Михаил Суслов
Озвучание:
Екатерина Муравицкая
Кирилл Патрино
Константин Погодаев
Михаил Суслов


Файл
Качество: BDRip (720p)
Формат: MKV
Видео: 1280x544 (2,35:1), 24 fps, MPEG-4 AVC ~4466 kbps avg, 0.267 bit/pixel
Звук: Rus: 48 kHz, AC3 Dolby Digital, 3/2 (L,C,R,l,r) + LFE ch, ~640.00 kbps avg
Звук: Ita: 48 kHz, AC3 Dolby Digital, 3/2 (L,C,R,l,r) + LFE ch, ~640.00 kbps avg
Формат : Matroska
Версия формата : Version 4 / Version 2
Размер файла : 4,36 Гбайт
Продолжительность : 1 ч. 46 м.
Общий поток : 5862 Кбит/сек
Название фильма : Mine @ AlexFilm
Дата кодирования : UTC 2017-03-02 22:00:36
Программа кодирования : mkvmerge v7.1.0 ('Good Love') 64bit built on Jul 27 2014 13:06:55
Библиотека кодирования : libebml v1.3.0 + libmatroska v1.4.1

Видео
Идентификатор : 1
Формат : AVC
Формат/Информация : Advanced Video Codec
Профиль формата : High@L4.1
Параметр CABAC формата : Да
Параметр ReFrames формата : 12 кадров
Идентификатор кодека : V_MPEG4/ISO/AVC
Продолжительность : 1 ч. 46 м.
Битрейт : 4466 Кбит/сек
Ширина : 1280 пикселей
Высота : 544 пикселя
Соотношение сторон : 2,35:1
Режим частоты кадров : Постоянный
Частота кадров : 24,000 кадра/сек
Цветовое пространство : YUV
Субдискретизация насыщенности : 4:2:0
Битовая глубина : 8 бит
Тип развёртки : Прогрессивная
Бит/(Пиксели*Кадры) : 0.267
Размер потока : 3,32 Гбайт (76%)
Заголовок : NOiZE@CRiME
Библиотека кодирования : x264 core 148 r2744 b97ae06
Настройки программы : cabac=1 / ref=12 / deblock=1:-3:-3 / analyse=0x3:0x133 / me=umh / subme=10 / psy=1 / psy_rd=1.00:0.00 / mixed_ref=1 / me_range=64 / chroma_me=1 / trellis=2 / 8x8dct=1 / cqm=0 / deadzone=21,11 / fast_pskip=0 / chroma_qp_offset=-2 / threads=6 / lookahead_threads=1 / sliced_threads=0 / nr=0 / decimate=0 / interlaced=0 / bluray_compat=0 / constrained_intra=0 / bframes=9 / b_pyramid=2 / b_adapt=2 / b_bias=0 / direct=3 / weightb=1 / open_gop=0 / weightp=2 / keyint=250 / keyint_min=24 / scenecut=40 / intra_refresh=0 / rc_lookahead=60 / rc=crf / mbtree=0 / crf=16.5 / qcomp=0.65 / qpmin=0 / qpmax=69 / qpstep=4 / vbv_maxrate=62500 / vbv_bufsize=78125 / crf_max=0.0 / nal_hrd=none / filler=0 / ip_ratio=1.30 / pb_ratio=1.20 / aq=3:0.75 / zones=801,1042,crf=15.5/1672,1777,crf=15/4300,11664,crf=15/11873,12012,crf=15.5/13397,13425,crf=15.5/13573,13622,crf=15.5/14650,14713,crf=15.5/16747,16983,crf=13.5/44576,44663,crf=13.5/45069,45225,crf=13.5/45924,46045,crf=13.5/53915,55795,crf=15.5/59530,59666,crf=14.5/66177,66448,crf=15.5/66853,67025,crf=15.5/72339,72477,crf=15.5/73203,73728,crf=14.5/74279,81207,crf=16/93638,95682,crf=14.5/95683,102835,crf=16/131011,131424,crf=16/139226,139266,crf=14.5/147613,148046,crf=15.5/148576,153360,crf=20.5
Язык : Italian
Default : Да
Forced : Нет

Аудио #1
Идентификатор : 2
Формат : AC-3
Формат/Информация : Audio Coding 3
Расширение режима : CM (complete main)
Параметр Endianness формата : Big
Идентификатор кодека : A_AC3
Продолжительность : 1 ч. 46 м.
Вид битрейта : Постоянный
Битрейт : 640 Кбит/сек
Каналы : 6 каналов
Расположение каналов : Front: L C R, Side: L R, LFE
Частота : 48,0 КГц
Частота кадров : 31,250 кадров/сек (1536 spf)
Метод сжатия : С потерями
Размер потока : 488 Мбайт (11%)
Заголовок : DD5.1 AlexFilm
Язык : Russian
Default : Да
Forced : Нет

Аудио #2
Идентификатор : 3
Формат : AC-3
Формат/Информация : Audio Coding 3
Расширение режима : CM (complete main)
Параметр Endianness формата : Big
Идентификатор кодека : A_AC3
Продолжительность : 1 ч. 46 м.
Вид битрейта : Постоянный
Битрейт : 640 Кбит/сек
Каналы : 6 каналов
Расположение каналов : Front: L C R, Side: L R, LFE
Частота : 48,0 КГц
Частота кадров : 31,250 кадров/сек (1536 spf)
Метод сжатия : С потерями
Размер потока : 488 Мбайт (11%)
Заголовок : DD5.1 Original
Язык : Italian
Default : Нет
Forced : Нет
pb.wtf



Скачать Мина через торрент http://i90.fastpic.ru/big/2017/0302/a4/3aa5849245959a9cc133ad7f1928eca4.jpg Скачать фильм Мина через торрент бесплантно в хорошем качестве О фильме: Американский солдат после проваленной миссии оказывается в одиночестве посреди афганской пустыни. Одной ногой стоя на мине, он не ... 10 10 4
Info! Золотая раздача, скачанное не засчитывается.
Торрент: Зарегистрирован [2017-03-02 22:41] · скачан: 245 раз
Статус: √ проверено
Размер: 4.36 GB
Как cкачать? Как скачать Мина через торрент | qTorrent

% Раздел Тема Автор DL S | L
Фильмы [HD 720p, 1080p] (Хороший звук DUB, MVO) [ 14.4 GB ] Полиция Майами: Отдел нравов / Miami Vice [2006 BDRip 1080p от _denis_100 | NNNB] DUB + Original + Sub _denis_100 Скачать
1 | 0
Фильмы до 2000 г. [ 1.45 GB ] Фарфоровая луна / China Moon [1991 г BDRip] DVO koenig Скачать
1 | 0
Фильмы [HD 720p, 1080p] (Хороший звук DUB, MVO) [ 14.44 GB ] Бумажная луна / Paper Moon [1973 экранизация BDRip 1080p by msltel] MVO 2 x DVO AVO msltel Скачать
1 | 0
# Релизы по Парсеру [Игры, Сериалы и Фильмы и другое...] [ 7.12 GB ] Деньги / Money [2016 BDRip 1080p Любительский Синема УС] sanekbest1 Скачать
1 | 0
Фильмы с авторской озвучкой [ 1.45 GB ] Схватка / Heat [1995 BDRip] [Remastered] [AVO] killermax2013 Скачать
1 | 0
Фильмы (Blu-ray, BD-Remux, HDDVD) [ 19.03 GB ] Финансовый монстр / Money Monster [2016 BD Remux 1080p] DUB [ CEE] bober100 Скачать
1 | 0
Фильмы [HD 720p, 1080p] (Хороший звук DUB, MVO) [ 20.64 GB ] Соучастник / Collateral [2004 BDRip 1080p] + [MVO] + [DVO] + [AVO] killermax2013 Скачать
2 | 0

28-11-2019 20:33  

Отключить всю рекламу на сайте

03-03-2017 05:19 Мина Скачать торрент  

Интересно весь фильМ происходит в одном кадре-месте?? pb.wtf



03-03-2017 05:24 Мина Скачать торрент  

Не смотрел, но почему то кажется, что старый НЕ американский фильм No man`s land был ничуть не хуже, а то и лучшеpb.wtf



05-03-2017 19:57 Мина Скачать торрент  

Хороший фильм. эмоциональный.pb.wtf



    Дорогой пользователь! Огромная просьба, поблагодарите релизера, оцените раздачу и оставьте свои комментарий, если Вы скачали Мина через торрент бесплатно! Внесите свою лепту в развитие PiratBit!
    Комментировать посты могут только пользователи прошедшие не сложную регистрацию
    Показать сообщения:    

    Мина через торрент
    Скачать бесплатно Мина
    Мина скачать торрент
    Мина смотреть онлайн
    Cкачать фильм Мина бесплатно
    Мина скачать торрент в хорошем качестве
    Мина смотреть онлайн бесплатно в хорошем качестве


    Вы не можете начинать темы
    Вы не можете отвечать на сообщения
    Вы не можете редактировать свои сообщения
    Вы не можете удалять свои сообщения
    Вы не можете голосовать в опросах
    Вы не можете прикреплять файлы к сообщениям
    Вы можете скачивать файлы