новый адрес
Мега распродажа FORZA HORIZON 4 ULTIMATE+ВСЕ DLC+ОНЛАЙН всего за 499р. 349 руб. (супер цена). Внимание количество ограничено!!!

iTunes

1+1

iTunes

мы

iTunes

1

iTunes

Чернобыль

iTunes

Ральф против интернета

Лицензия

ПШазам

Лицензия

Оно 2

Лицензия

30
pack

ВАЖНО

!!Акция!!

Alien_RageХит недели

RePack

Resident Evil 21

ИГРА 18+

pack

RePack

jed

!!Акция!!

Alien_Rage

RePack

fifa19

RePack

Assassins Creed: Odyssey

RePack

NEED FOR SPEED™ PAYBACK

3 сезон

9 сезон

Бесстыжие 9 сезон

Все сериалы

все сериалы на PB.wtf

RePack

FAR CRY 5
Ребята, катастрофически не хватает 1900р. для оплаты серверов за Октябрь (всвязи с блокировками трафик упал в 3 раза), 1-2р., выручайте.
  

Отец и сын (Владимир Краснопольский, Валерий Усков) [1979, СССР, драма, SATRip от AVP Studio] pb.wtf

Отец и сын через торрент pb.wtf

Размер: 1.46 GB | Добавлен: 2 года 8 мес. назад | Торрент скачан:8 раз
Скачать  

03-03-2017 07:44 Отец и сын Скачать торрент  

Отец и сын
Страна: СССР
Производство: Мосфильм

Жанр: драма
Год выпуска: 1957
Продолжительность: (01:27:17 + 01:19:20) 02:46:37

Перевод: Не требуется
Cубтитры: нет
Оригинальная аудиодорожка: русский

Режиссер: Владимир Краснопольский, Валерий Усков

В ролях:
Вадим Спиридонов, Алексей Серебряков, Надежда Бутырцева, Виктор Мамаев, Валерий Куксин, Алексей Ванин, Борис Новиков, Людмила Хитяева, Павел Кормунин, Ирина Нечаева, Андрей Смоляков, Сергей Мартынов, Марина Дюжева, Валерий Гатаев, Николай Бриллинг, Сергей Полежаев, Василий Корзун, Иван Лапиков, Леонид Харитонов, Михаил Бочаров, Буда Вампилов, Виктор Михайлов (VI), Татьяна Ким, Геннадий Корольков, Юрий Медведев, Дмитрий Орловский, Сергей Харченко, Анна Тогоноева, Женя Милованова, Елена Краснопольская, Василий Лещёв, Наталия Потапова, Александр Зимин, Юрий Чернов...
Об актёрах подробней

Описание:
Драма по одноименному роману Георгия Маркова.
Кинодилогия воспроизводит историю становления Советской власти в Сибири. Фильм первый - "Опрокинутая тишина" - об организации Васюгинской коммуны, ожесточенной борьбе первых сельских коммунаров. Второй фильм - "Эхо далеких выстрелов" - о разоблачении контрреволюционеров, погубивших коммуну и убивших её председателя.

Источник: DVB
Качество видео: SATRip
Формат видео: AVI

Видео: 688x272 (2,529:1), 25 fps, XviD ~ 1052 kbps avg, 0.225 bit/pixel
Аудио: 48 kHz, Dolby Digital AC3 2.0, 192 kbps

Раздача от:
Общее
Полное имя : Otec.i.syn.1979.SATRip_[New-team]_by_AVP_Studio\Серия 01.avi
Формат : AVI
Формат/Информация : Audio Video Interleave
Размер файла : 783 Мбайт
Продолжительность : 1 ч. 27 м.
Общий поток : 1253 Кбит/сек
Программа кодирования : VirtualDubMod 1.5.10.3 | www.virtualdub-fr.org || (build 2550/release)
Библиотека кодирования : VirtualDubMod build 2550/release

Видео
Идентификатор : 0
Формат : MPEG-4 Visual
Профиль формата : Advanced Simple@L5
Параметр BVOP формата : 1
Параметр QPel формата : Нет
Параметр GMC формата : Без точки перехода
Параметр матрицы формата : Выборочная
Идентификатор кодека : XVID
Идентификатор кодека/Подсказка : XviD
Продолжительность : 1 ч. 27 м.
Битрейт : 1052 Кбит/сек
Ширина : 688 пикселей
Высота : 272 пикселя
Соотношение сторон : 2,529
Частота кадров : 25,000 кадров/сек
Цветовое пространство : YUV
Субдискретизация насыщенности : 4:2:0
Битовая глубина : 8 бит
Тип развёртки : Прогрессивная
Метод сжатия : С потерями
Бит/(Пиксели*Кадры) : 0.225
Размер потока : 657 Мбайт (84%)
Библиотека кодирования : XviD 73

Аудио
Идентификатор : 1
Формат : AC-3
Формат/Информация : Audio Coding 3
Расширение режима : CM (complete main)
Параметр Endianness формата : Big
Идентификатор кодека : 2000
Продолжительность : 1 ч. 27 м.
Вид битрейта : Постоянный
Битрейт : 192 Кбит/сек
Каналы : 2 канала
Расположение каналов : Front: L R
Частота : 48,0 КГц
Частота кадров : 31,250 кадров/сек (1536 spf)
Битовая глубина : 16 бит
Метод сжатия : С потерями
Размер потока : 120 Мбайт (15%)
Выравнивание : Разделение по промежуткам
Продолжительность промежутка : 40 мс. (1,00 видеокадр)
Время предзагрузки промежутка : 500 мс
pb.wtf



Скачать Отец и сын через торрент http://s019.radikal.ru/i635/1703/31/a97a6192f9b3.png Скачать фильм Отец и сын через торрент бесплантно в хорошем качестве Описание:Драма по одноименному роману Георгия Маркова.Кинодилогия воспроизводит историю становления Советской власти в Сибири. Фильм первый ... 5 10 1
Info! Золотая раздача, скачанное не засчитывается.
Торрент: Зарегистрирован [2017-03-03 07:44] · скачан: 8 раз
Статус: √ проверено
Размер: 1.46 GB
Как cкачать? Как скачать Отец и сын через торрент | qTorrent

% Раздел Тема Автор DL S | L
Кино СССР [ 1.46 GB ] Отец и сын [1979 СССР SATRip-AVC от AVP Studio] AVP Studio Скачать
1 | 0
Зарубежные сериалы [ 1.05 GB ] Отец и сын / Father and Son / Сезон: 1 / Серии: 1-4 [2009 ьная WEB-DLRip DVO] Mr. Freeman Скачать
1 | 0


>> Регистрируемся здесь <<






Отзывы и комментарии о схеме читаем и пишем здесь: ---> Отзывы и комментарии о схеме

Новые благодарочки в телеграм довольных пользователей:
скриншот   скриншот   скриншот   скриншот   скриншот
    Дорогой пользователь! Огромная просьба, поблагодарите релизера, оцените раздачу и оставьте свои комментарий, если Вы скачали Отец и сын через торрент бесплатно! Внесите свою лепту в развитие PiratBit!
    Комментировать посты могут только пользователи прошедшие не сложную регистрацию
    Показать сообщения:    

    Отец и сын через торрент
    Скачать бесплатно Отец и сын
    Отец и сын скачать торрент
    Отец и сын смотреть онлайн
    Cкачать фильм Отец и сын бесплатно
    Отец и сын скачать торрент в хорошем качестве
    Отец и сын смотреть онлайн бесплатно в хорошем качестве


    Вы не можете начинать темы
    Вы не можете отвечать на сообщения
    Вы не можете редактировать свои сообщения
    Вы не можете удалять свои сообщения
    Вы не можете голосовать в опросах
    Вы не можете прикреплять файлы к сообщениям
    Вы можете скачивать файлы