Ссылка на приватное зеркало нашего сайта всего за 1$. Внимание количество ограничено!!!

2 сезон

iTunes

1 сезон

1

iTunes

iTunes

iTunes

1 сезон

RePack

30

ИГРА 18+

pack

ВАЖНО

!!Акция!!

Alien_RageХит недели

RePack

MK11
pack

Забери бонус

RePack

jed

!!Акция!!

Alien_Rage

RePack

fifa19

RePack

Assassins Creed: Odyssey

RePack

NEED FOR SPEED™ PAYBACK

4 сезон

9 сезон

Бесстыжие 9 сезон

Все сериалы

все сериалы на PB.wtf

RePack

FAR CRY 5
  

Отпетые напарники / Skiptrace (Ренни Харлин ) [2016, боевик, триллер, комедия, BDRip 1080p] DUB + MVO + DVO pb.wtf

Отпетые напарники через торрент pb.wtf

Качают: 1 [ 0 KB/s ]
Размер: 12.24 GB | Добавлен: 3 года 7 мес. назад | Торрент скачан:452 раза
Скачать  

03-03-2017 10:36 Отпетые напарники Скачать торрент  

Отпетые напарники / Skiptrace

Год выпуска: 2016
Страна: Китай, Гонконг, США
Жанр: боевик, триллер, комедия, криминал, приключения

Продолжительность: 01:47:41
Перевод: Дубляж - [Лицензия / iTunes]
Любительский многоголосый [Студия "Paradox"]
Любительский двухголосый [Пиратская студия дубляжа]
Субтитры: английские (Full),
английские (SDH),
английские (SDH [Colored]),
Режиссер: Ренни Харлин
В ролях: Джеки Чан (Bennie Chan), Джонни Ноксвил (Connor Watts), Бинбин Фань (Samatha Bai), Эрик Цан (Yung), Ив Торрес (Dasha), Уинстон Чао (Victor Wong), Ён Джон-хун (Willie), Ши Ши (Leslie), Майкл Вон (Tang), Дилан Ко (Esmond), Чжан Ланьсинь (Ting Ting), На Вэй (Officer Wu)
Описание:
Чтобы обезвредить преступный синдикат и спасти свою племянницу, самый честный коп должен взять в напарники красавчика-афериста. Они полные противоположности, но у них одна опасная миссия. Они в бегах, но им не избежать друг друга.
Рейтинг:

MPAA: PG-13 - Детям до 13 лет просмотр не желателен
Качество: BDRip 1080p
Формат: MKV
Видео: AVC, 1920x800 (2.40:1), 13103 kbps, 23,976 fps, 0,356 bpp
Аудио №1: русский / AC3 / 5.1 / 48 kHz / 384 kbps / |Дубляж[iTunes]|
Аудио №2: русский / AC3 / 5.1 / 48 kHz / 640 kbps / |MVO[Студия "Paradox" & Omskbird records]|
Аудио №3: русский / AC3 / 5.1 / 48 kHz / 640 kbps / |DVO[СПД]|
Аудио №4: английский / DTS / 5.1 / 48 kHz / 1509 kbps / 24 bit
Навигация по главам: есть

General
Unique ID : 245891446668049241603714102281227637171 (0xB8FCF853464B1B8793C55D52540A91B3)
Complete name : D:\Proba\Skiptrace.2016.RUSx3.BDRip.1080p.mkv
Format : Matroska
Format version : Version 4 / Version 2
File size : 12.2 GiB
Duration : 1 h 47 min
Overall bit rate : 16.3 Mb/s
Encoded date : UTC 2017-03-03 09:46:56
Writing application : mkvmerge v9.7.1 ('Pandemonium') 64bit
Writing library : libebml v1.3.4 + libmatroska v1.4.5

Video
ID : 1
Format : AVC
Format/Info : Advanced Video Codec
Format profile : High@L4.1
Format settings, CABAC : Yes
Format settings, ReFrames : 5 frames
Codec ID : V_MPEG4/ISO/AVC
Duration : 1 h 47 min
Bit rate : 13.1 Mb/s
Width : 1 920 pixels
Height : 800 pixels
Display aspect ratio : 2.40:1
Frame rate mode : Constant
Frame rate : 23.976 (24000/1001) FPS
Color space : YUV
Chroma subsampling : 4:2:0
Bit depth : 8 bits
Scan type : Progressive
Bits/(Pixel*Frame) : 0.356
Stream size : 9.85 GiB (80%)
Writing library : x264 core 129 r2245 bc13772
Encoding settings : cabac=1 / ref=5 / deblock=1:-3:-3 / analyse=0x3:0x133 / me=umh / subme=11 / psy=1 / psy_rd=1.05:0.10 / mixed_ref=1 / me_range=64 / chroma_me=1 / trellis=2 / 8x8dct=1 / cqm=0 / deadzone=21,11 / fast_pskip=0 / chroma_qp_offset=-3 / threads=6 / lookahead_threads=1 / sliced_threads=0 / nr=0 / decimate=1 / interlaced=0 / bluray_compat=0 / constrained_intra=0 / bframes=8 / b_pyramid=2 / b_adapt=2 / b_bias=0 / direct=3 / weightb=1 / open_gop=0 / weightp=2 / keyint=250 / keyint_min=23 / scenecut=40 / intra_refresh=0 / rc_lookahead=60 / rc=2pass / mbtree=1 / bitrate=13103 / ratetol=1.0 / qcomp=0.60 / qpmin=0 / qpmax=69 / qpstep=4 / cplxblur=20.0 / qblur=0.5 / vbv_maxrate=40000 / vbv_bufsize=30000 / nal_hrd=none / ip_ratio=1.40 / aq=1:0.80
Language : English
Default : Yes
Forced : No

Audio #1
ID : 2
Format : AC-3
Format/Info : Audio Coding 3
Mode extension : CM (complete main)
Format settings, Endianness : Big
Codec ID : A_AC3
Duration : 1 h 47 min
Bit rate mode : Constant
Bit rate : 384 kb/s
Channel(s) : 6 channels
Channel positions : Front: L C R, Side: L R, LFE
Sampling rate : 48.0 kHz
Frame rate : 31.250 FPS (1536 spf)
Compression mode : Lossy
Stream size : 296 MiB (2%)
Title : iTunes
Language : Russian
Default : Yes
Forced : No

Audio #2
ID : 3
Format : AC-3
Format/Info : Audio Coding 3
Mode extension : CM (complete main)
Format settings, Endianness : Big
Codec ID : A_AC3
Duration : 1 h 47 min
Bit rate mode : Constant
Bit rate : 640 kb/s
Channel(s) : 6 channels
Channel positions : Front: L C R, Side: L R, LFE
Sampling rate : 48.0 kHz
Frame rate : 31.250 FPS (1536 spf)
Compression mode : Lossy
Stream size : 493 MiB (4%)
Title : MVO-AC3 [PARADOX @ OMSKBIRD]
Language : Russian
Default : No
Forced : No

Audio #3
ID : 4
Format : AC-3
Format/Info : Audio Coding 3
Mode extension : CM (complete main)
Format settings, Endianness : Big
Codec ID : A_AC3
Duration : 1 h 47 min
Bit rate mode : Constant
Bit rate : 640 kb/s
Channel(s) : 6 channels
Channel positions : Front: L C R, Side: L R, LFE
Sampling rate : 48.0 kHz
Frame rate : 31.250 FPS (1536 spf)
Compression mode : Lossy
Stream size : 493 MiB (4%)
Title : MVO-AC3 [SPD]
Language : Russian
Default : No
Forced : No

Audio #4
ID : 5
Format : DTS
Format/Info : Digital Theater Systems
Mode : 16
Format settings, Endianness : Big
Codec ID : A_DTS
Duration : 1 h 47 min
Bit rate mode : Constant
Bit rate : 1 509 kb/s
Channel(s) : 6 channels
Channel positions : Front: L C R, Side: L R, LFE
Sampling rate : 48.0 kHz
Frame rate : 93.750 FPS (512 spf)
Bit depth : 24 bits
Compression mode : Lossy
Stream size : 1.14 GiB (9%)
Title : Original
Language : English
Default : No
Forced : No

Text #1
ID : 6
Format : UTF-8
Codec ID : S_TEXT/UTF8
Codec ID/Info : UTF-8 Plain Text
Duration : 1 h 42 min
Bit rate : 40 b/s
Count of elements : 1140
Stream size : 30.7 KiB (0%)
Title : Full
Language : English
Default : No
Forced : No

Text #2
ID : 7
Format : UTF-8
Codec ID : S_TEXT/UTF8
Codec ID/Info : UTF-8 Plain Text
Duration : 1 h 46 min
Bit rate : 46 b/s
Count of elements : 1437
Stream size : 36.4 KiB (0%)
Title : SDH
Language : English
Default : No
Forced : No

Text #3
ID : 8
Format : UTF-8
Codec ID : S_TEXT/UTF8
Codec ID/Info : UTF-8 Plain Text
Duration : 1 h 47 min
Bit rate : 67 b/s
Count of elements : 1437
Stream size : 53.3 KiB (0%)
Title : SDH [Colored]
Language : English
Default : No
Forced : No

Menu
00:00:00.000 : en:00:00:00.000
00:06:04.990 : en:00:06:04.990
00:13:12.959 : en:00:13:12.959
00:20:20.803 : en:00:20:20.803
00:27:23.767 : en:00:27:23.767
00:34:51.506 : en:00:34:51.506
00:43:05.082 : en:00:43:05.082
00:49:09.280 : en:00:49:09.280
00:55:45.509 : en:00:55:45.509
01:04:06.342 : en:01:04:06.342
01:09:07.602 : en:01:09:07.602
01:15:53.632 : en:01:15:53.632
01:23:22.998 : en:01:23:22.998
01:30:19.331 : en:01:30:19.331
01:39:44.145 : en:01:39:44.145
01:43:30.746 : en:01:43:30.746
pb.wtf



Скачать Отпетые напарники через торрент http://i3.imageban.ru/out/2017/03/03/d6dc7c10bf19c5e8c1b81d3dd10b0959.jpg Скачать фильм Отпетые напарники через торрент бесплантно в хорошем качестве Описание: Чтобы обезвредить преступный синдикат и спасти свою племянницу, самый честный коп должен взять в напарники красавчика-афериста. ... 9.8 10 13
Info! Золотая раздача, скачанное не засчитывается.
Торрент: Зарегистрирован [2017-03-03 10:36] · скачан: 452 раз
Статус: √ проверено
Размер: 12.24 GB
Как cкачать? Как скачать Отпетые напарники через торрент | qTorrent

28-11-2019 20:33  

Отключить всю рекламу на сайте

    Дорогой пользователь! Огромная просьба, поблагодарите релизера, оцените раздачу и оставьте свои комментарий, если Вы скачали Отпетые напарники через торрент бесплатно! Внесите свою лепту в развитие PiratBit!
    Комментировать посты могут только пользователи прошедшие не сложную регистрацию
    Показать сообщения:    

    Отпетые напарники через торрент
    Скачать бесплатно Отпетые напарники
    Отпетые напарники скачать торрент
    Отпетые напарники смотреть онлайн
    Cкачать фильм Отпетые напарники бесплатно
    Отпетые напарники скачать торрент в хорошем качестве
    Отпетые напарники смотреть онлайн бесплатно в хорошем качестве


    Вы не можете начинать темы
    Вы не можете отвечать на сообщения
    Вы не можете редактировать свои сообщения
    Вы не можете удалять свои сообщения
    Вы не можете голосовать в опросах
    Вы не можете прикреплять файлы к сообщениям
    Вы можете скачивать файлы