1 сезон

3 сезон

iTunes

1

Line

MVO

iTunes

13

1 сезон

RePack

30

Deluxe

pack

Лицензия

ВАЖНО

ИГРА 18+

pack

RePack

MK11

RePack

jed

RePack

fifa19

RePack

RDR2

RePack

NEED FOR SPEED™ PAYBACK

4 сезон

9 сезон

Бесстыжие 9 сезон

Все сериалы

все сериалы на PB.wtf

RePack

FAR CRY 5

Anonymous, доброй ночи, мы катастрофически не успеваем собрать деньги на оплату серверов, помогите нам пожалуйста 5,10,15р., для нас важна любая помощь . В качестве благодарности мы отключим Вам всю рекламу на сайте (укажите свой ник в строку Ваше имя)!

×
  
Magnet ссылка

Пассажиры / Passengers (Мортен Тильдум) [2016, фантастика, драма, мелодрама, BDRip 720p от R.G.Resident] Дубляж - [Лицензия / iTunes] pb.wtf

Пассажиры через торрент pb.wtf

Размер: 4.93 GB | Добавлен: 4 года 4 мес. назад | Торрент скачан:471 раз
Скачать  

04-03-2017 01:34 Пассажиры Скачать торрент  

Пассажиры / Passengers
««Ничто не случайно»»

Год выпуска: 2016
Страна: США
Жанр: фантастика, драма, мелодрама, приключения
Продолжительность: 01:56:10
Перевод: Дубляж - [Лицензия / iTunes]
Субтитры: русские (Forced), русские (Full), украинские (Full), английские (Full), английские (SDH)
Режиссер: Мортен Тильдум
В ролях:

Дженнифер Лоуренс (Aurora Lane), Крис Пратт (Jim Preston), Майкл Шин (Arthur), Лоренс Фишбёрн (Gus Mancuso), Энди Гарсиа (Captain Norris), Винс Фостер (Executive Officer), Кара Мишель Уайлдер (Communications Officer), Конор Брофи (Crew Member), Джули Серда (Instructor (Hologram)), Аврора Перрино (Best Friend), Лорен Фармер (Party Friend), Emerald Mayne (Party Friend)
Описание:
Космический корабль с 5 000 пассажирами на борту, погруженных на время полета в искусственный сон, держит курс на планету, которая станет для них новым домом. Всё идет по плану, но из-за сбоя системы двое пассажиров неожиданно просыпаются и понимают, что до конечного пункта путешествия 90 лет пути, и им суждено остаток жизни провести вдвоем в роскошных интерьерах корабля, оснащенного по последнему слову техники. Постепенно Джима и Аврору начинает непреодолимо тянуть друг к другу, но корабль попадает в беду, и теперь в их руках - жизнь и судьба всех обитателей корабля.
Мировая премьера: 14 декабря 2016

MPAA: PG-13 - Детям до 13 лет просмотр не желателен
Качество: BDRip 720p Rip by
Формат: MKV
Видео: AVC, 1280x534 (2.40:1), 4051 kbps, 23,976 fps, 0,247 bpp
Аудио №1: русский / AC3 / 5.1 / 48 kHz / 384 kbps /
Аудио №2: украинский / AC3 / 2.0 / 48 kHz / 128 kbps /
Аудио №3: английский / DTS / 5.1 / 48 kHz / 1509 kbps / 24 bit
x264 [info]: frame I:1573 Avg QP:11.06 size:144432
x264 [info]: frame P:40693 Avg QP:14.67 size: 44576
x264 [info]: frame B:124870 Avg QP:17.39 size: 11923

General
Unique ID : 179321778239116488787021678874360560455 (0x86E81E44EBBA90CBA79CEE784AD03B47)
Complete name : D:\download\Passengers.2016.BDRip 720р by schultz R.G.Resident.mkv
Format : Matroska
Format version : Version 4 / Version 2
File size : 4.93 GiB
Duration : 1 h 56 min
Overall bit rate : 6 075 kb/s
Encoded date : UTC 2017-03-04 00:55:54
Writing application : mkvmerge v8.9.0 ('Father Daughter') 64bit
Writing library : libebml v1.3.3 + libmatroska v1.4.4

Video
ID : 1
Format : AVC
Format/Info : Advanced Video Codec
Format profile : High@L4.1
Format settings, CABAC : Yes
Format settings, ReFrames : 12 frames
Codec ID : V_MPEG4/ISO/AVC
Duration : 1 h 56 min
Bit rate : 4 051 kb/s
Width : 1 280 pixels
Height : 534 pixels
Display aspect ratio : 2.40:1
Frame rate mode : Constant
Frame rate : 23.976 (23976/1000) FPS
Color space : YUV
Chroma subsampling : 4:2:0
Bit depth : 8 bits
Scan type : Progressive
Bits/(Pixel*Frame) : 0.247
Stream size : 3.29 GiB (67%)
Writing library : x264 core 146 r2538 121396c
Encoding settings : cabac=1 / ref=12 / deblock=1:-3:-3 / analyse=0x3:0x113 / me=umh / subme=11 / psy=1 / psy_rd=1.00:0.00 / mixed_ref=1 / me_range=48 / chroma_me=1 / trellis=2 / 8x8dct=1 / cqm=0 / deadzone=21,11 / fast_pskip=0 / chroma_qp_offset=-2 / threads=12 / lookahead_threads=3 / sliced_threads=0 / nr=0 / decimate=0 / interlaced=0 / bluray_compat=0 / constrained_intra=0 / bframes=11 / b_pyramid=2 / b_adapt=2 / b_bias=0 / direct=3 / weightb=1 / open_gop=0 / weightp=2 / keyint=240 / keyint_min=23 / scenecut=40 / intra_refresh=0 / rc_lookahead=40 / rc=2pass / mbtree=1 / bitrate=4051 / ratetol=1.0 / qcomp=0.60 / qpmin=0 / qpmax=69 / qpstep=4 / cplxblur=20.0 / qblur=0.5 / vbv_maxrate=50000 / vbv_bufsize=62500 / nal_hrd=none / filler=0 / ip_ratio=1.40 / aq=1:1.00
Language : English
Default : Yes
Forced : No

Audio #1
ID : 2
Format : AC-3
Format/Info : Audio Coding 3
Mode extension : CM (complete main)
Format settings, Endianness : Big
Codec ID : A_AC3
Duration : 1 h 56 min
Bit rate mode : Constant
Bit rate : 384 kb/s
Channel(s) : 6 channels
Channel positions : Front: L C R, Side: L R, LFE
Sampling rate : 48.0 kHz
Frame rate : 31.250 FPS (1536 spf)
Compression mode : Lossy
Stream size : 319 MiB (6%)
Language : Russian
Default : Yes
Forced : No

Audio #2
ID : 3
Format : AC-3
Format/Info : Audio Coding 3
Mode extension : CM (complete main)
Format settings, Endianness : Big
Codec ID : A_AC3
Duration : 1 h 56 min
Bit rate mode : Constant
Bit rate : 128 kb/s
Channel(s) : 2 channels
Channel positions : Front: L R
Sampling rate : 48.0 kHz
Frame rate : 31.250 FPS (1536 spf)
Compression mode : Lossy
Delay relative to video : 1 s 0 ms
Stream size : 106 MiB (2%)
Language : Ukrainian
Default : No
Forced : No

Audio #3
ID : 4
Format : DTS
Format/Info : Digital Theater Systems
Mode : 16
Format settings, Endianness : Big
Codec ID : A_DTS
Duration : 1 h 56 min
Bit rate mode : Constant
Bit rate : 1 509 kb/s
Channel(s) : 6 channels
Channel positions : Front: L C R, Side: L R, LFE
Sampling rate : 48.0 kHz
Frame rate : 93.750 FPS (512 spf)
Bit depth : 24 bits
Compression mode : Lossy
Stream size : 1.22 GiB (25%)
Language : English
Default : No
Forced : No

Text #1
ID : 5
Format : UTF-8
Codec ID : S_TEXT/UTF8
Codec ID/Info : UTF-8 Plain Text
Duration : 1 h 48 min
Bit rate : 0 b/s
Count of elements : 13
Stream size : 592 Bytes (0%)
Title : Forced
Language : Russian
Default : Yes
Forced : No

Text #2
ID : 6
Format : UTF-8
Codec ID : S_TEXT/UTF8
Codec ID/Info : UTF-8 Plain Text
Duration : 1 h 54 min
Bit rate : 68 b/s
Count of elements : 1115
Stream size : 57.7 KiB (0%)
Title : Full
Language : Russian
Default : No
Forced : No

Text #3
ID : 7
Format : UTF-8
Codec ID : S_TEXT/UTF8
Codec ID/Info : UTF-8 Plain Text
Duration : 1 h 54 min
Bit rate : 75 b/s
Count of elements : 1282
Stream size : 63.3 KiB (0%)
Title : Full
Language : Ukrainian
Default : No
Forced : No

Text #4
ID : 8
Format : UTF-8
Codec ID : S_TEXT/UTF8
Codec ID/Info : UTF-8 Plain Text
Duration : 1 h 45 min
Bit rate : 49 b/s
Count of elements : 1280
Stream size : 37.9 KiB (0%)
Title : Full
Language : English
Default : No
Forced : No

Text #5
ID : 9
Format : UTF-8
Codec ID : S_TEXT/UTF8
Codec ID/Info : UTF-8 Plain Text
Duration : 1 h 48 min
Bit rate : 57 b/s
Count of elements : 1619
Stream size : 45.3 KiB (0%)
Title : SDH
Language : English
Default : No
Forced : No

Menu
00:00:00.000 : en:00:00:00.000
00:07:04.674 : en:00:07:04.674
00:14:38.211 : en:00:14:38.211
00:20:33.649 : en:00:20:33.649
00:25:06.338 : en:00:25:06.338
00:30:30.662 : en:00:30:30.662
00:40:47.987 : en:00:40:47.987
00:50:23.020 : en:00:50:23.020
00:57:28.945 : en:00:57:28.945
01:02:54.813 : en:01:02:54.813
01:10:47.160 : en:01:10:47.160
01:17:48.664 : en:01:17:48.664
01:25:17.029 : en:01:25:17.029
01:31:45.041 : en:01:31:45.041
01:37:53.242 : en:01:37:53.242
01:42:18.549 : en:01:42:18.549

pb.wtf



Скачать Пассажиры через торрент http://i77.fastpic.ru/big/2016/0417/a7/808a646271c761f7c7d87df3d366b3a7.png Скачать фильм Пассажиры через торрент бесплантно в хорошем качестве Описание: Космический корабль с 5 000 пассажирами на борту, погруженных на время полета в искусственный сон, держит курс на планету, ... 10 10 12
Info! Золотая раздача, скачанное не засчитывается.
Торрент: Зарегистрирован [2017-03-04 01:34] · скачан: 471 раз
Статус: √ проверено
Размер: 4.93 GB
Как cкачать? Как скачать Пассажиры через торрент | UTorrent

% Раздел Тема Автор DL S | L
Фильмы [HD 720p, 1080p] (Хороший звук DUB, MVO) [ 5.93 GB ] Пассажиры / Passengers [2016 BDRip 1080p HEVC ] Мичман37 Скачать
1 | 0
Фильмы 2016 [DVDrip, WEB-DLRip, HDrip] (DUB, MVO) [ 2.18 GB ] Пассажиры / Passengers [2016 BDRip] - [] Twi7ter Скачать
2 | 0
Фильмы 2016 [DVDrip, WEB-DLRip, HDrip] (DUB, MVO) [ 1.46 GB ] Пассажиры / Passengers [2016 BDRip] - [] Twi7ter Скачать
1 | 0
T Фильмы (мультфильмы) cо спонсором показа (Новинки AVI/MKV) [ 1.24 GB ] Девятый пассажир / The Ninth Passenger [2018 DVDRip Любительский ] oleg8 Скачать
1 | 0
Ultra HD (UHD: 2K, 4K, 8K) — видео сверхвысокой чёткости [ 36.31 GB ] Пассажиры / Passengers [2016 UHD BDRip 2160p SDR] DUB + AVO [Ю.Сербин] sheker187 Скачать
1 | 0
T Фильмы (мультфильмы) cо спонсором показа (Новинки AVI/MKV) [ 3.63 GB ] Пятый Пассажир / 5th Passenger [2018 WEB-DL 1080p] MVO [@MUZOBOZ@] bober100 Скачать
1 | 0
T Фильмы (мультфильмы) cо спонсором показа (Новинки AVI/MKV) [ 3.44 GB ] Пятый Пассажир / 5th Passenger [2018 WEB-DL 720p] MVO [@MUZOBOZ@] bober100 Скачать
1 | 0

28-11-2019 20:33  

Отключить всю рекламу на сайте

21-03-2017 17:25 Пассажиры Скачать торрент  

Спасибо!pb.wtf



    Дорогой пользователь! Огромная просьба, поблагодарите релизера, оцените раздачу и оставьте свои комментарий, если Вы скачали Пассажиры через торрент бесплатно! Внесите свою лепту в развитие PiratBit!
    Комментировать посты могут только пользователи прошедшие не сложную регистрацию
    Показать сообщения:    

    Пассажиры через торрент
    Скачать бесплатно Пассажиры
    Пассажиры скачать торрент
    Пассажиры смотреть онлайн
    Cкачать фильм Пассажиры бесплатно
    Пассажиры скачать торрент в хорошем качестве
    Пассажиры смотреть онлайн бесплатно в хорошем качестве


    Вы не можете начинать темы
    Вы не можете отвечать на сообщения
    Вы не можете редактировать свои сообщения
    Вы не можете удалять свои сообщения
    Вы не можете голосовать в опросах
    Вы не можете прикреплять файлы к сообщениям
    Вы можете скачивать файлы