Ссылка на приватное зеркало нашего сайта всего за 1$. Внимание количество ограничено!!!

2 сезон

iTunes

1 сезон

1

iTunes

iTunes

iTunes

1 сезон

RePack

30

ИГРА 18+

pack

ВАЖНО

!!Акция!!

Alien_RageХит недели

RePack

MK11
pack

Забери бонус

RePack

jed

!!Акция!!

Alien_Rage

RePack

fifa19

RePack

Assassins Creed: Odyssey

RePack

NEED FOR SPEED™ PAYBACK

4 сезон

9 сезон

Бесстыжие 9 сезон

Все сериалы

все сериалы на PB.wtf

RePack

FAR CRY 5
  

Человек, который слишком мало знал / The Man Who Knew Too Little (Джон Эмиел) [1997, боевик, триллер, комедия, криминал, BDRip 720p by msltel] DUB, DVO, AVO pb.wtf

Человек, который слишком мало знал через торрент pb.wtf

Размер: 4.91 GB | Добавлен: 3 года 7 мес. назад | Торрент скачан:169 раз
Скачать  

04-03-2017 09:10 Человек, который слишком мало знал Скачать торрент  

Название: Человек, который слишком мало знал
Оригинальное название: The Man Who Knew Too Little
Год выпуска: 1997
Страна: США, Германия
Жанр: боевик, триллер, комедия, криминал
Продолжительность: 01:33:43
Перевод: дублированный, профессиональный двухголосый, авторский

Режиссёр: Джон Эмиел

В ролях: Билл Мюррэй, Питер Галлахер, Джоанн Уолли, Альфред Молина, Ричард Уилсон, Джон Стэндинг, Саймон Чэндлер, Джеральдин Джеймс, Анна Чэнселлор, Николас Вудесон, Клифф Паризи, Джон Томсон, Джанет Хенфри, Терри О’Нил, Изабель Хернандез, Дональд Пикеринг, Винишия Баррет, Теренс Харви, Кейт Фоулер, Ричард Диксон, Сара Кроуден, Барнеби Кэй, Адам Фогерти, Жаклин Филлипс, Индай Ба, Декстер Флетчер, Джозефин Градуэлл, Линда Бротон, Дэвид Бойс, Джонатан Дау, Дерек Сми, Шила Рид, Боб Холмс, Пол Ширер, Есинори Ямамото, Тошие Огура, Чарльз Саймон, Роджер Морлидж

Описание: Приехавшего в Лондон Уоллеса Ричи принимают не за того, кто он есть на самом деле. Случайно он получает секретные инструкции и становится крутым суперагентом, сам того не подозревая. Ричи простой и наивный парень. Он с трудом выговаривает сложные слова и вряд ли так хорош, как кажется, но… он весело решает все проблемы, особенно не задумываясь над ними. Стрельба, погони, нокауты и бомбы с часовым механизмом — это только начало. Начало жизни шпиона!.. Фильм по роману "Следи за этим человеком" Роберта Фаррара.



Качество: BDRip 720p
Формат: MKV
Видео: MPEG-4 AVC, 6472 Кбит/с, 1280x720, 23,976 кадра/с
Аудио 1: русский, AC3, 192 kbps, 2 ch, 48 kHz [дублированный, Варус Видео]
Аудио 2: русский, AC3, 192 kbps, 2 ch, 48 kHz [профессиональный двухголосый, HTB+]
Аудио 3: русский, AC3, 192 kbps, 2 ch, 48 kHz [авторский, Андрей Гаврилов]
Аудио 4: английский, AC3, 448 kbps, 6 ch, 48 kHz [оригинал]
Субтитры 1: русские
Субтитры 2: английские (для слабослышащих)
Имеются неименованные главы/чаптеры.
Общее
Уникальный идентификатор : 216506140265153567893444784035232987405 (0xA2E190DCBA4575399C14DF189307B90D)
Полное имя : D:\Video\Человек, который слишком мало знал.1997.BDRip.720p.mkv
Формат : Matroska
Версия формата : Version 4 / Version 2
Размер файла : 4,91 Гбайт
Продолжительность : 1 ч. 33 м.
Общий поток : 7498 Кбит/сек
Название фильма : Rip by msltel
Дата кодирования : UTC 2017-03-04 08:22:22
Программа кодирования : mkvmerge v8.2.0 ('World of Adventure') 64bit
Библиотека кодирования : libebml v1.3.1 + libmatroska v1.4.2

Видео
Идентификатор : 1
Формат : AVC
Формат/Информация : Advanced Video Codec
Профиль формата : High@L4.1
Параметр CABAC формата : Да
Параметр ReFrames формата : 9 кадров
Идентификатор кодека : V_MPEG4/ISO/AVC
Продолжительность : 1 ч. 33 м.
Битрейт : 6472 Кбит/сек
Ширина : 1280 пикселей
Высота : 720 пикселей
Соотношение сторон : 16:9
Режим частоты кадров : Постоянный
Частота кадров : 23,976 (24000/1001) кадра/сек
Цветовое пространство : YUV
Субдискретизация насыщенности : 4:2:0
Битовая глубина : 8 бит
Тип развёртки : Прогрессивная
Бит/(Пиксели*Кадры) : 0.293
Размер потока : 4,24 Гбайт (86%)
Библиотека кодирования : x264 core 146 r2538 121396c
Настройки программы : cabac=1 / ref=9 / deblock=1:-3:-2 / analyse=0x3:0x113 / me=umh / subme=11 / psy=1 / psy_rd=1.00:0.15 / mixed_ref=1 / me_range=32 / chroma_me=1 / trellis=2 / 8x8dct=1 / cqm=0 / deadzone=21,11 / fast_pskip=0 / chroma_qp_offset=-3 / threads=6 / lookahead_threads=1 / sliced_threads=0 / nr=0 / decimate=1 / interlaced=0 / bluray_compat=0 / constrained_intra=0 / bframes=8 / b_pyramid=2 / b_adapt=2 / b_bias=0 / direct=1 / weightb=1 / open_gop=0 / weightp=2 / keyint=230 / keyint_min=23 / scenecut=40 / intra_refresh=0 / rc_lookahead=40 / rc=crf / mbtree=0 / crf=18.5 / qcomp=0.60 / qpmin=0 / qpmax=69 / qpstep=4 / vbv_maxrate=62500 / vbv_bufsize=78125 / crf_max=0.0 / nal_hrd=none / filler=0 / ip_ratio=1.40 / pb_ratio=1.30 / aq=1:1.00
Язык : English
Default : Да
Forced : Нет

Аудио #1
Идентификатор : 2
Формат : AC-3
Формат/Информация : Audio Coding 3
Параметр Endianness формата : Big
Идентификатор кодека : A_AC3
Продолжительность : 1 ч. 33 м.
Вид битрейта : Постоянный
Битрейт : 192 Кбит/сек
Каналы : 2 канала
Расположение каналов : Front: L R
Частота : 48,0 КГц
Частота кадров : 31,250 кадров/сек (1536 spf)
Битовая глубина : 16 бит
Метод сжатия : С потерями
Размер потока : 129 Мбайт (3%)
Заголовок : DUB (Варус Видео)
Язык : Russian
ServiceKind/String : Complete Main
Default : Да
Forced : Нет

Аудио #2
Идентификатор : 3
Формат : AC-3
Формат/Информация : Audio Coding 3
Параметр Endianness формата : Big
Идентификатор кодека : A_AC3
Продолжительность : 1 ч. 33 м.
Вид битрейта : Постоянный
Битрейт : 192 Кбит/сек
Каналы : 2 канала
Расположение каналов : Front: L R
Частота : 48,0 КГц
Частота кадров : 31,250 кадров/сек (1536 spf)
Битовая глубина : 16 бит
Метод сжатия : С потерями
Размер потока : 129 Мбайт (3%)
Заголовок : DVO (HTB+)
Язык : Russian
ServiceKind/String : Complete Main
Default : Нет
Forced : Нет

Аудио #3
Идентификатор : 4
Формат : AC-3
Формат/Информация : Audio Coding 3
Параметр Endianness формата : Big
Идентификатор кодека : A_AC3
Продолжительность : 1 ч. 33 м.
Вид битрейта : Постоянный
Битрейт : 192 Кбит/сек
Каналы : 2 канала
Расположение каналов : Front: L R
Частота : 48,0 КГц
Частота кадров : 31,250 кадров/сек (1536 spf)
Битовая глубина : 16 бит
Метод сжатия : С потерями
Размер потока : 129 Мбайт (3%)
Заголовок : AVO (Андрей Гаврилов)
Язык : Russian
ServiceKind/String : Complete Main
Default : Нет
Forced : Нет

Аудио #4
Идентификатор : 5
Формат : AC-3
Формат/Информация : Audio Coding 3
Параметр Endianness формата : Big
Идентификатор кодека : A_AC3
Продолжительность : 1 ч. 33 м.
Вид битрейта : Постоянный
Битрейт : 448 Кбит/сек
Каналы : 6 каналов
Расположение каналов : Front: L C R, Side: L R, LFE
Частота : 48,0 КГц
Частота кадров : 31,250 кадров/сек (1536 spf)
Битовая глубина : 16 бит
Метод сжатия : С потерями
Размер потока : 300 Мбайт (6%)
Заголовок : original
Язык : English
ServiceKind/String : Complete Main
Default : Нет
Forced : Нет

Текст #1
Идентификатор : 6
Формат : UTF-8
Идентификатор кодека : S_TEXT/UTF8
Идентификатор кодека/Информация : UTF-8 Plain Text
Продолжительность : 1 ч. 32 м.
Битрейт : 116 бит/сек
ElementCount : 1345
Размер потока : 78,9 Кбайт (0%)
Заголовок : русские
Язык : Russian
Default : Нет
Forced : Нет

Текст #2
Идентификатор : 7
Формат : UTF-8
Идентификатор кодека : S_TEXT/UTF8
Идентификатор кодека/Информация : UTF-8 Plain Text
Продолжительность : 1 ч. 31 м.
Битрейт : 67 бит/сек
ElementCount : 1477
Размер потока : 45,0 Кбайт (0%)
Заголовок : английские (для слабослышащих)
Язык : English
Default : Нет
Forced : Нет

Меню
00:00:00.000 : :Chapter 01
00:09:12.927 : :Chapter 02
00:19:25.080 : :Chapter 03
00:30:38.962 : :Chapter 04
00:40:01.273 : :Chapter 05
00:50:57.220 : :Chapter 06
00:59:58.428 : :Chapter 07
01:09:34.003 : :Chapter 08
01:19:44.112 : :Chapter 09
01:33:41.824 : :Chapter 10
pb.wtf



Скачать Человек, который слишком мало знал через торрент http://s61.radikal.ru/i174/1703/5a/0f5108557c7d.jpg Скачать фильм Человек, который слишком мало знал через торрент бесплантно в хорошем качестве Описание: Приехавшего в Лондон Уоллеса Ричи принимают не за того, кто он есть на самом деле. Случайно он получает секретные инструкции и ... 10 10 7
Info! Золотая раздача, скачанное не засчитывается.
Торрент: Зарегистрирован [2017-03-04 09:10] · скачан: 169 раз
Статус: √ проверено
Размер: 4.91 GB
Как cкачать? Как скачать Человек, который слишком мало знал через торрент | qTorrent

% Раздел Тема Автор DL S | L
Фильмы [HD 720p, 1080p] (Хороший звук DUB, MVO) [ 13.5 GB ] Человек который слишком мало знал / The Man Who Knew Too Little [1997 BDRip 1080p by msltel] DUB DVO AVO msltel Скачать
1 | 0

28-11-2019 20:33  

Отключить всю рекламу на сайте

04-03-2017 14:49 Человек, который слишком мало знал Скачать торрент  

спасибо огромное-так поржал от души-когда-то видимо пропустил-мюрэй зажег-танец с матрешками это просто огонь pb.wtf



04-03-2017 16:49 Человек, который слишком мало знал Скачать торрент  

Хмм, тоже н припомню фильм этот, качаю однозначно, благодарю! pb.wtf



    Дорогой пользователь! Огромная просьба, поблагодарите релизера, оцените раздачу и оставьте свои комментарий, если Вы скачали Человек, который слишком мало знал через торрент бесплатно! Внесите свою лепту в развитие PiratBit!
    Комментировать посты могут только пользователи прошедшие не сложную регистрацию
    Показать сообщения:    

    Человек, который слишком мало знал через торрент
    Скачать бесплатно Человек, который слишком мало знал
    Человек, который слишком мало знал скачать торрент
    Человек, который слишком мало знал смотреть онлайн
    Cкачать фильм Человек, который слишком мало знал бесплатно
    Человек, который слишком мало знал скачать торрент в хорошем качестве
    Человек, который слишком мало знал смотреть онлайн бесплатно в хорошем качестве


    Вы не можете начинать темы
    Вы не можете отвечать на сообщения
    Вы не можете редактировать свои сообщения
    Вы не можете удалять свои сообщения
    Вы не можете голосовать в опросах
    Вы не можете прикреплять файлы к сообщениям
    Вы можете скачивать файлы