новый адрес
Мега распродажа FORZA HORIZON 4 ULTIMATE+ВСЕ DLC+ОНЛАЙН всего за 499р. 349 руб. (супер цена). Внимание количество ограничено!!!

iTunes

1+1

iTunes

мы

iTunes

1

iTunes

Чернобыль

iTunes

Ральф против интернета

Лицензия

ПШазам

Лицензия

Оно 2

Лицензия

30
pack

ВАЖНО

!!Акция!!

Alien_RageХит недели

RePack

Resident Evil 21

ИГРА 18+

pack

RePack

Metro:Exodus

!!Акция!!

Alien_Rage

RePack

fifa19

RePack

Assassins Creed: Odyssey

RePack

NEED FOR SPEED™ PAYBACK

3 сезон

9 сезон

Бесстыжие 9 сезон

Все сериалы

все сериалы на PB.wtf

RePack

FAR CRY 5
Ребята, катастрофически не хватает 1900р. для оплаты серверов за Октябрь (всвязи с блокировками трафик упал в 3 раза), 1-2р., выручайте.
  

Белая акация (Георгий Натансон) [1957, СССР, комедия, мюзикл, DVDRip от AVP Studio] pb.wtf

Белая акация через торрент pb.wtf

Размер: 1.36 GB | Добавлен: 2 года 8 мес. назад | Торрент скачан:5 раз
Скачать  

05-03-2017 09:33 Белая акация Скачать торрент  

Белая акация
Страна: СССР
Производство: Молдова-филм по заказу Центральной студии телевидения

Жанр: комедия, мюзикл
Год выпуска: 1957
Продолжительность: 01:25:02

Перевод: Не требуется
Cубтитры: нет
Оригинальная аудиодорожка: русский

Режиссер: Георгий Натансон

В ролях:
Идалия Иванова, Александр Стародуб, Евгения Дембская, Михаил Водяной, Николай Кочкин, Валентина Франчук, Муза Крепкогорская, Михаил Дашевский, Шева Фингерова, Олег Шаповалов, Борис Никитин, А. Латров, Виктор Алоин, Н. Сивченко...
Об актёрах подробней

Описание:
По одноименной оперетте И. Дунаевского.
Фильм снят по спектаклю Одесского театра музыкальной комедии (главный режиссер театра и постановщик спектакля - И. Гриншпун).
Китобойная флотилия уходит в далёкое плавание на промысел, а дома моряков всегда ждут родные, любимые, друзья. Вот и теперь они провожают китобоев. Капитан флотилии, красавец Костя Куприянов, оставляет на берегу невесту Ларису, девицу довольно эффектную внешне, но пустую, хитрую и пошлую по существу. У неё есть другой вздыхатель – Яшка-Буксир (Михаил Водяной), Яшка-доставала, агент по снабжению дефицитным барахлом, обаятельный одесский жулик. А по Косте тайно вздыхает совсем молоденькая девчонка, которую до сих пор и взрослой то не считали, «морская дочка» Тоня Чумакова. Вот она по-настоящему любит героя-моряка, любит настолько бескорыстно и глубоко, что решается на святой обман – посылает Косте на флагманский корабль, в беснующийся от шторма океан радиограмму от имени Ларисы и все свои чувства вкладывает в слова любви, подписывая их чужим именем. Ну а Костя, узнав, кто был истинным автором радиограммы, которая так взволновала его, конечно, сумел сделать правильный выбор, ко всеобщему удовольствию.

Источник: DVD5 R5
Качество видео: DVDRip
Формат видео: AVI

Видео: 720x544 (4:3), 25 fps, XviD ~ 2082 kbps avg, 0.213 bit/pixel
Аудио: 48 kHz, Dolby Digital AC3 2.0, 192 kbps

Раздача от:
Общее
Полное имя : Belaya.akaciya.1957.DVDRip_[New-team]_by_AVP_Studio.avi
Формат : AVI
Формат/Информация : Audio Video Interleave
Размер файла : 1,36 Гбайт
Продолжительность : 1 ч. 25 м.
Общий поток : 2285 Кбит/сек

Видео
Идентификатор : 0
Формат : MPEG-4 Visual
Профиль формата : Advanced Simple@L5
Параметр BVOP формата : 1
Параметр QPel формата : Нет
Параметр GMC формата : Без точки перехода
Параметр матрицы формата : Выборочная
Идентификатор кодека : XVID
Идентификатор кодека/Подсказка : XviD
Продолжительность : 1 ч. 25 м.
Битрейт : 2082 Кбит/сек
Ширина : 720 пикселей
Высота : 544 пикселя
Соотношение сторон : 4:3
Частота кадров : 25,000 кадров/сек
Цветовое пространство : YUV
Субдискретизация насыщенности : 4:2:0
Битовая глубина : 8 бит
Тип развёртки : Прогрессивная
Метод сжатия : С потерями
Бит/(Пиксели*Кадры) : 0.213
Размер потока : 1,24 Гбайт (91%)
Библиотека кодирования : XviD 73

Аудио
Идентификатор : 1
Формат : AC-3
Формат/Информация : Audio Coding 3
Расширение режима : CM (complete main)
Параметр Endianness формата : Big
Идентификатор кодека : 2000
Продолжительность : 1 ч. 25 м.
Вид битрейта : Постоянный
Битрейт : 192 Кбит/сек
Каналы : 2 канала
Расположение каналов : Front: L R
Частота : 48,0 КГц
Частота кадров : 31,250 кадров/сек (1536 spf)
Битовая глубина : 16 бит
Метод сжатия : С потерями
Размер потока : 117 Мбайт (8%)
Выравнивание : Соединение по промежуткам
Продолжительность промежутка : 32 мс. (0,80 видеокадр)
pb.wtf



Скачать Белая акация через торрент http://s019.radikal.ru/i644/1703/35/b53464253c0c.png Скачать фильм Белая акация через торрент бесплантно в хорошем качестве Описание:По одноименной оперетте И. Дунаевского.Фильм снят по спектаклю Одесского театра музыкальной комедии (главный режиссер театра и ... 10 10 1
Info! Золотая раздача, скачанное не засчитывается.
Торрент: Зарегистрирован [2017-03-05 09:33] · скачан: 5 раз
Статус: √ проверено
Размер: 1.36 GB
Как cкачать? Как скачать Белая акация через торрент | qTorrent

% Раздел Тема Автор DL S | L
Кино СССР [ 1.46 GB ] Белая акация [1957 СССР мюзикл DVDRip-AVC от AVP Studio] AVP Studio Скачать
1 | 0
Кино СССР [ 746 MB ] Белая акация [1957 СССР мюзикл DVDRip от AVP Studio] AVP Studio Скачать
1 | 0


>> Регистрируемся здесь <<






Отзывы и комментарии о схеме читаем и пишем здесь: ---> Отзывы и комментарии о схеме

Новые благодарочки в телеграм довольных пользователей:
скриншот   скриншот   скриншот   скриншот   скриншот
    Дорогой пользователь! Огромная просьба, поблагодарите релизера, оцените раздачу и оставьте свои комментарий, если Вы скачали Белая акация через торрент бесплатно! Внесите свою лепту в развитие PiratBit!
    Комментировать посты могут только пользователи прошедшие не сложную регистрацию
    Показать сообщения:    

    Белая акация через торрент
    Скачать бесплатно Белая акация
    Белая акация скачать торрент
    Белая акация смотреть онлайн
    Cкачать фильм Белая акация бесплатно
    Белая акация скачать торрент в хорошем качестве
    Белая акация смотреть онлайн бесплатно в хорошем качестве


    Вы не можете начинать темы
    Вы не можете отвечать на сообщения
    Вы не можете редактировать свои сообщения
    Вы не можете удалять свои сообщения
    Вы не можете голосовать в опросах
    Вы не можете прикреплять файлы к сообщениям
    Вы можете скачивать файлы